<?xml version="1.0" standalone="no"?>
<!DOCTYPE svg PUBLIC "-//W3C//DTD SVG 1.1//EN" "http://www.w3.org/Graphics/SVG/1.1/DTD/svg11.dtd" >
<svg>
<metadata>
Created by FontForge 20090914 at Wed Aug  1 18:17:04 2018
 By www-data
Copyright (C) 2006, 2007 Hoefler &#38; Frere-Jones. http://www.typography.com
</metadata>
<defs>
<font id="GothamRounded-Medium" horiz-adv-x="671" >
  <font-face 
    font-family="Gotham Rounded Medium"
    font-weight="350"
    font-stretch="normal"
    units-per-em="1000"
    panose-1="2 0 0 0 0 0 0 0 0 0"
    ascent="800"
    descent="-200"
    x-height="528"
    cap-height="705"
    bbox="-49 -275 1180 1067"
    underline-thickness="50"
    underline-position="-50"
    stemh="110"
    stemv="121"
    unicode-range="U+0020-U+FB04"
  />
<missing-glyph horiz-adv-x="500" 
d="M0 -200v1000h500v-1000h-500zM71 750l179 -390l179 390h-358zM50 -76l172 376l-172 376v-752zM450 676l-172 -376l172 -376v752zM250 240l-179 -390h358z" />
    <glyph glyph-name="f_f" unicode="ff" horiz-adv-x="752" 
d="M103 55v369h-21c-28 0 -51 22 -51 50s23 51 51 51h21v39c0 58 15 102 43 130s67 42 119 42c24 0 44 -2 61 -5c22 -3 42 -23 42 -50c0 -28 -23 -51 -51 -50c-7 1 -17 2 -25 2c-46 0 -70 -25 -70 -80v-29h94c29 0 51 -22 51 -50s-23 -50 -51 -50h-92v-369
c0 -33 -27 -60 -61 -60c-33 0 -60 27 -60 60zM479 55v369h-21c-28 0 -51 22 -51 50s23 51 51 51h21v39c0 58 15 102 43 130s67 42 119 42c24 0 44 -2 61 -5c22 -3 42 -23 42 -50c0 -28 -23 -51 -51 -50c-7 1 -17 2 -25 2c-46 0 -70 -25 -70 -80v-29h94c29 0 51 -22 51 -50
s-23 -50 -51 -50h-92v-369c0 -33 -27 -60 -61 -60c-33 0 -60 27 -60 60z" />
    <glyph glyph-name="fi" unicode="fi" horiz-adv-x="662" 
d="M450 664v6c0 36 30 59 69 59s69 -23 69 -59v-6c0 -36 -30 -60 -69 -60s-69 24 -69 60zM459 55v418c0 34 26 61 60 61s61 -27 61 -61v-418c0 -34 -27 -60 -61 -60c-33 0 -60 26 -60 60zM103 55v369h-21c-28 0 -51 22 -51 50s23 51 51 51h21v39c0 58 15 102 43 130
s67 42 119 42c24 0 44 -2 61 -5c22 -3 42 -23 42 -50c0 -28 -23 -51 -51 -50c-7 1 -17 2 -25 2c-46 0 -70 -25 -70 -80v-29h94c29 0 51 -22 51 -50s-23 -50 -51 -50h-92v-369c0 -33 -27 -60 -61 -60c-33 0 -60 27 -60 60z" />
    <glyph glyph-name="fl" unicode="fl" horiz-adv-x="662" 
d="M459 55v620c0 33 26 60 60 60s61 -27 61 -60v-620c0 -34 -27 -60 -61 -60c-33 0 -60 26 -60 60zM103 55v369h-21c-28 0 -51 22 -51 50s23 51 51 51h21v39c0 58 15 102 43 130s67 42 119 42c24 0 44 -2 61 -5c22 -3 42 -23 42 -50c0 -28 -23 -51 -51 -50c-7 1 -17 2 -25 2
c-46 0 -70 -25 -70 -80v-29h94c29 0 51 -22 51 -50s-23 -50 -51 -50h-92v-369c0 -33 -27 -60 -61 -60c-33 0 -60 27 -60 60z" />
    <glyph glyph-name="f_f_i" unicode="ffi" horiz-adv-x="1038" 
d="M826 664v6c0 36 30 59 69 59s69 -23 69 -59v-6c0 -36 -30 -60 -69 -60s-69 24 -69 60zM835 55v418c0 34 26 61 60 61s61 -27 61 -61v-418c0 -34 -27 -60 -61 -60c-33 0 -60 26 -60 60zM103 55v369h-21c-28 0 -51 22 -51 50s23 51 51 51h21v39c0 58 15 102 43 130
s67 42 119 42c24 0 44 -2 61 -5c22 -3 42 -23 42 -50c0 -28 -23 -51 -51 -50c-7 1 -17 2 -25 2c-46 0 -70 -25 -70 -80v-29h94c29 0 51 -22 51 -50s-23 -50 -51 -50h-92v-369c0 -33 -27 -60 -61 -60c-33 0 -60 27 -60 60zM479 55v369h-21c-28 0 -51 22 -51 50s23 51 51 51
h21v39c0 58 15 102 43 130s67 42 119 42c24 0 44 -2 61 -5c22 -3 42 -23 42 -50c0 -28 -23 -51 -51 -50c-7 1 -17 2 -25 2c-46 0 -70 -25 -70 -80v-29h94c29 0 51 -22 51 -50s-23 -50 -51 -50h-92v-369c0 -33 -27 -60 -61 -60c-33 0 -60 27 -60 60z" />
    <glyph glyph-name="f_f_l" unicode="ffl" horiz-adv-x="1038" 
d="M103 55v369h-21c-28 0 -51 22 -51 50s23 51 51 51h21v39c0 58 15 102 43 130s67 42 119 42c24 0 44 -2 61 -5c22 -3 42 -23 42 -50c0 -28 -23 -51 -51 -50c-7 1 -17 2 -25 2c-46 0 -70 -25 -70 -80v-29h94c29 0 51 -22 51 -50s-23 -50 -51 -50h-92v-369
c0 -33 -27 -60 -61 -60c-33 0 -60 27 -60 60zM479 55v369h-21c-28 0 -51 22 -51 50s23 51 51 51h21v39c0 58 15 102 43 130s67 42 119 42c24 0 44 -2 61 -5c22 -3 42 -23 42 -50c0 -28 -23 -51 -51 -50c-7 1 -17 2 -25 2c-46 0 -70 -25 -70 -80v-29h94c29 0 51 -22 51 -50
s-23 -50 -51 -50h-92v-369c0 -33 -27 -60 -61 -60c-33 0 -60 27 -60 60zM835 55v620c0 33 26 60 60 60s61 -27 61 -60v-620c0 -34 -27 -60 -61 -60c-33 0 -60 26 -60 60z" />
    <glyph glyph-name=".notdef" horiz-adv-x="500" 
d="M0 -200v1000h500v-1000h-500zM71 750l179 -390l179 390h-358zM50 -76l172 376l-172 376v-752zM450 676l-172 -376l172 -376v752zM250 240l-179 -390h358z" />
    <glyph glyph-name="space" unicode=" " horiz-adv-x="300" 
 />
    <glyph glyph-name="exclam" unicode="!" horiz-adv-x="302" 
d="M115 252l-35 408c-2 24 12 43 35 43h72c23 0 38 -19 36 -43l-35 -408c-2 -22 -17 -36 -37 -36s-34 14 -36 36zM80 74c0 39 31 69 71 69c41 0 71 -30 71 -69v-10c0 -39 -30 -69 -71 -69c-40 0 -71 30 -71 69v10z" />
    <glyph glyph-name="quotedbl" unicode="&#x22;" horiz-adv-x="487" 
d="M282 433l17 214c2 32 24 56 57 56h40c18 0 32 -12 32 -33c0 -6 -2 -14 -4 -22l-73 -222c-7 -19 -17 -31 -36 -31s-35 15 -33 38zM62 433l18 214c2 32 24 56 57 56h39c19 0 33 -12 33 -33c0 -6 -2 -14 -4 -22l-73 -222c-7 -19 -17 -31 -36 -31c-20 0 -35 15 -34 38z" />
    <glyph glyph-name="numbersign" unicode="#" horiz-adv-x="700" 
d="M114 56l18 105h-46c-29 0 -52 23 -52 52c0 28 23 52 52 52h64l30 174h-58c-28 0 -52 24 -52 52s24 52 52 52h76l20 119c4 26 26 43 52 43c33 0 56 -30 52 -61l-18 -101h157l20 119c4 26 26 43 53 43c32 0 56 -30 51 -61l-17 -101h46c28 0 52 -23 52 -52
c0 -28 -24 -52 -52 -52h-64l-30 -174h57c29 0 52 -23 52 -52c0 -28 -23 -52 -52 -52h-75l-21 -123c-4 -25 -26 -43 -52 -43c-33 0 -57 30 -52 61l19 105h-157l-21 -123c-4 -22 -23 -43 -53 -43c-32 0 -56 27 -51 61zM257 265h156l30 174h-156z" />
    <glyph glyph-name="dollar" unicode="$" horiz-adv-x="642" 
d="M285 720c0 24 20 43 44 43s43 -19 43 -43v-22c59 -7 109 -26 155 -55c16 -9 30 -24 30 -48c0 -31 -25 -55 -56 -55c-10 0 -20 3 -30 9c-35 21 -69 36 -103 44v-192c152 -38 217 -99 217 -206c0 -110 -86 -183 -213 -195v-60c0 -24 -19 -43 -43 -43s-44 19 -44 43v62
c-75 8 -144 35 -205 78c-17 11 -27 27 -27 48c0 31 24 55 55 55c12 0 24 -4 33 -11c47 -34 93 -57 148 -67v197c-146 38 -214 93 -214 206c0 107 85 181 210 191v21zM467 188c0 44 -22 71 -99 95v-182c64 7 99 39 99 87zM193 515c0 -42 19 -68 96 -93v177
c-64 -6 -96 -40 -96 -84z" />
    <glyph glyph-name="percent" unicode="%" horiz-adv-x="849" 
d="M212 350c-98 0 -164 81 -164 177v2c0 98 67 179 166 179s164 -81 164 -177v-2c0 -97 -66 -179 -166 -179zM154 34c0 10 4 19 9 26l459 627c7 12 20 18 34 18c22 0 40 -17 40 -39c0 -10 -4 -19 -9 -26l-459 -627c-8 -12 -21 -18 -35 -18c-22 0 -39 17 -39 39zM635 -8
c-98 0 -164 81 -164 177v2c0 98 67 179 166 179c98 0 164 -81 164 -177v-2c0 -97 -67 -179 -166 -179zM214 427c47 0 75 46 75 100v2c0 56 -32 102 -77 102c-47 0 -75 -46 -75 -100v-2c0 -57 32 -102 77 -102zM637 69c47 0 75 46 75 100v2c0 56 -32 102 -77 102
c-47 0 -75 -46 -75 -100v-2c0 -57 32 -102 77 -102z" />
    <glyph glyph-name="ampersand" unicode="&#x26;" horiz-adv-x="696" 
d="M600 -10c-18 0 -30 6 -43 19l-73 74c-59 -57 -130 -93 -216 -93c-131 0 -229 79 -229 200v2c0 90 53 155 149 196c-40 51 -58 95 -58 146v2c0 94 76 176 201 176c111 0 186 -75 186 -169v-2c0 -92 -61 -147 -153 -182l119 -121c21 30 40 64 58 100c5 11 21 29 46 29
c29 0 53 -24 53 -52c0 -9 -3 -19 -7 -27c-23 -43 -49 -85 -76 -123l78 -78c12 -12 19 -24 19 -42c0 -31 -23 -55 -54 -55zM298 425c72 26 110 58 110 109v2c0 47 -33 79 -79 79c-50 0 -84 -35 -84 -84v-2c0 -35 14 -61 53 -104zM280 92c49 0 93 24 133 62l-156 159
c-66 -29 -94 -72 -94 -117v-2c0 -59 49 -102 117 -102z" />
    <glyph glyph-name="quotesingle" unicode="'" horiz-adv-x="269" 
d="M62 433l18 214c2 32 24 56 57 56h39c19 0 34 -12 34 -33c0 -6 -2 -14 -4 -22l-73 -222c-7 -19 -18 -31 -37 -31c-20 0 -35 15 -34 38z" />
    <glyph glyph-name="parenleft" unicode="(" horiz-adv-x="441" 
d="M346 -135c-13 0 -25 4 -29 7c-165 99 -254 234 -254 415s89 316 254 415c4 3 16 7 29 7c24 0 46 -24 46 -49c0 -19 -8 -32 -20 -41c-127 -89 -188 -190 -188 -332s61 -243 188 -332c12 -9 20 -22 20 -41c0 -25 -22 -49 -46 -49z" />
    <glyph glyph-name="parenright" unicode=")" horiz-adv-x="441" 
d="M94 -135c-24 0 -46 24 -46 49c0 19 9 32 21 41c126 89 188 190 188 332s-62 243 -188 332c-12 9 -21 22 -21 41c0 25 22 49 46 49c14 0 25 -4 29 -7c166 -99 255 -234 255 -415s-89 -316 -255 -415c-4 -3 -15 -7 -29 -7z" />
    <glyph glyph-name="asterisk" unicode="*" horiz-adv-x="430" 
d="M184 414l10 90l-75 -55c-9 -6 -16 -10 -25 -10c-18 0 -33 16 -33 34c0 15 12 26 23 31l88 38l-88 39c-12 5 -23 16 -23 31c0 18 16 33 34 33c9 0 15 -3 24 -10l75 -55l-10 89c-3 21 11 38 31 38s34 -16 31 -37l-10 -90l75 55c9 7 16 10 25 10c18 0 33 -15 33 -33
c0 -16 -11 -26 -23 -31l-88 -39l88 -38c12 -5 23 -16 23 -32c0 -18 -16 -33 -34 -33c-8 0 -15 4 -24 10l-75 55l10 -89c3 -21 -11 -38 -31 -38s-34 16 -31 37z" />
    <glyph glyph-name="plus" unicode="+" horiz-adv-x="634" 
d="M260 158v139h-142c-30 0 -55 24 -55 55c0 30 25 55 55 55h142v139c0 32 25 57 57 57c31 0 57 -25 57 -57v-139h142c30 0 55 -25 55 -55c0 -31 -25 -55 -55 -55h-142v-139c0 -32 -26 -57 -57 -57c-32 0 -57 25 -57 57z" />
    <glyph glyph-name="comma" unicode="," horiz-adv-x="269" 
d="M30 -117c0 14 10 24 23 27c46 15 70 46 68 90c-29 8 -57 32 -57 68v8c0 38 27 67 68 67c45 0 72 -34 72 -88v-11c0 -68 -18 -114 -49 -146c-27 -26 -66 -43 -94 -43c-21 0 -31 13 -31 28z" />
    <glyph glyph-name="hyphen" unicode="-" horiz-adv-x="408" 
d="M110 247c-32 0 -59 27 -59 59c0 33 27 60 59 60h188c32 0 59 -27 59 -60c0 -32 -27 -59 -59 -59h-188z" />
    <glyph glyph-name="period" unicode="." horiz-adv-x="269" 
d="M64 74c0 39 30 69 71 69c40 0 70 -30 70 -69v-10c0 -39 -30 -69 -70 -69c-41 0 -71 30 -71 69v10z" />
    <glyph glyph-name="slash" unicode="/" horiz-adv-x="521" 
d="M0 -87c0 9 3 18 6 24l409 838c9 18 24 28 44 28c26 0 47 -21 47 -46c0 -9 -3 -18 -5 -24l-410 -838c-9 -18 -23 -28 -43 -28c-26 0 -48 21 -48 46z" />
    <glyph glyph-name="zero" unicode="0" horiz-adv-x="724" 
d="M361 -12c-184 0 -304 160 -304 360v2c0 200 122 362 306 362c183 0 304 -160 304 -360v-2c0 -200 -122 -362 -306 -362zM363 99c109 0 177 112 177 249v2c0 138 -71 251 -179 251s-177 -110 -177 -249v-2c0 -138 70 -251 179 -251z" />
    <glyph glyph-name="one" unicode="1" horiz-adv-x="396" 
d="M178 56v528l-72 -22c-7 -2 -16 -3 -22 -3c-29 0 -54 24 -54 52c0 26 16 46 41 53l106 34c24 7 42 11 60 11h2c35 0 61 -27 61 -61v-592c0 -34 -27 -61 -61 -61c-33 0 -61 27 -61 61z" />
    <glyph glyph-name="two" unicode="2" horiz-adv-x="613" 
d="M43 58c0 24 11 44 32 61l215 183c96 81 131 126 131 189c0 69 -49 109 -113 109c-56 0 -95 -26 -138 -78c-9 -10 -23 -19 -43 -19c-31 0 -56 25 -56 56c0 13 5 27 14 38c57 71 122 113 232 113c137 0 231 -84 231 -209v-2c0 -110 -58 -170 -182 -271l-144 -120h284
c30 0 54 -24 54 -54s-24 -54 -54 -54h-397c-38 0 -66 22 -66 58z" />
    <glyph glyph-name="three" unicode="3" horiz-adv-x="618" 
d="M311 -12c-103 0 -180 36 -237 91c-11 9 -20 26 -20 44c0 32 27 59 59 59c18 0 31 -7 41 -16c44 -44 94 -67 159 -67c69 0 121 42 121 106v2c0 69 -63 108 -161 108h-25c-29 0 -53 24 -53 53c0 16 7 31 26 50l164 175h-254c-30 0 -54 24 -54 53c0 30 24 54 54 54h358
c35 0 61 -21 61 -54c0 -29 -14 -46 -35 -67l-165 -171c106 -13 206 -67 206 -196v-2c0 -129 -99 -222 -245 -222z" />
    <glyph glyph-name="four" unicode="4" horiz-adv-x="682" 
d="M412 53v104h-313c-33 0 -60 24 -60 58c0 24 9 44 27 65l329 390c22 26 39 40 75 40c33 0 60 -26 60 -59v-393h54c29 0 51 -23 51 -51s-22 -50 -51 -50h-54v-104c0 -33 -26 -58 -59 -58s-59 25 -59 58zM182 258h230v277z" />
    <glyph glyph-name="five" unicode="5" horiz-adv-x="623" 
d="M308 -12c-95 0 -167 32 -224 76c-15 12 -25 28 -25 48c0 32 27 59 59 59c15 0 26 -4 36 -12c48 -39 97 -59 152 -59c79 0 136 47 136 121v2c0 72 -60 116 -145 116c-68 0 -101 -24 -120 -24s-34 7 -58 24c-18 13 -25 31 -24 54l15 252c2 32 26 55 56 55h317
c30 0 55 -25 55 -55s-25 -54 -55 -54h-263l-11 -164c33 12 64 20 111 20c137 0 244 -72 244 -220v-2c0 -142 -106 -237 -256 -237z" />
    <glyph glyph-name="six" unicode="6" horiz-adv-x="656" 
d="M337 -12c-86 0 -148 27 -195 74c-53 53 -85 126 -85 267v2c0 214 102 381 300 381c72 0 129 -19 175 -50c19 -12 31 -28 31 -53c0 -32 -27 -57 -59 -57c-11 0 -22 4 -31 9c-38 25 -73 39 -120 39c-104 0 -162 -94 -168 -222c37 36 85 70 168 70c135 0 244 -80 244 -220
v-2c0 -139 -113 -238 -260 -238zM334 95c87 0 140 54 140 126v2c0 70 -56 122 -143 122s-142 -56 -142 -123v-2c0 -71 58 -125 145 -125z" />
    <glyph glyph-name="seven" unicode="7" horiz-adv-x="609" 
d="M137 50c0 10 5 27 11 38l272 504h-303c-30 0 -54 24 -54 54s24 54 54 54h393c34 0 56 -20 56 -55c0 -18 -7 -40 -17 -59l-290 -550c-15 -28 -34 -41 -59 -41c-33 0 -63 20 -63 55z" />
    <glyph glyph-name="eight" unicode="8" horiz-adv-x="630" 
d="M315 -10c-153 0 -267 80 -267 201v2c0 84 47 137 126 170c-59 31 -102 78 -102 156v2c0 107 103 189 243 189s243 -81 243 -189v-2c0 -78 -43 -125 -102 -156c77 -35 126 -85 126 -168v-2c0 -125 -114 -203 -267 -203zM315 404c72 0 125 43 125 103v2
c0 54 -50 98 -125 98s-125 -44 -125 -97v-2c0 -61 53 -104 125 -104zM315 93c92 0 147 47 147 105v2c0 64 -64 106 -147 106s-146 -42 -146 -106v-2c0 -57 54 -105 146 -105z" />
    <glyph glyph-name="nine" unicode="9" horiz-adv-x="656" 
d="M299 -12c-79 0 -137 23 -189 58c-17 11 -28 28 -28 51c0 32 26 56 58 56c13 0 24 -4 34 -10c41 -29 80 -43 128 -43c103 0 165 91 169 220c-35 -42 -89 -74 -164 -74c-149 0 -248 87 -248 222v2c0 137 106 242 261 242c88 0 145 -25 195 -74c51 -52 84 -129 84 -267v-2
c0 -225 -111 -381 -300 -381zM325 349c89 0 142 58 142 126v2c0 73 -57 129 -146 129c-87 0 -139 -58 -139 -130v-2c0 -73 56 -125 143 -125z" />
    <glyph glyph-name="colon" unicode=":" horiz-adv-x="279" 
d="M69 464c0 40 30 70 71 70c40 0 70 -30 70 -70v-9c0 -40 -30 -70 -70 -70c-41 0 -71 30 -71 70v9zM69 74c0 39 30 69 71 69c40 0 70 -30 70 -69v-10c0 -39 -30 -69 -70 -69c-41 0 -71 30 -71 69v10z" />
    <glyph glyph-name="semicolon" unicode=";" horiz-adv-x="279" 
d="M69 464c0 40 30 70 71 70c40 0 70 -30 70 -70v-9c0 -40 -30 -70 -70 -70c-41 0 -71 30 -71 70v9zM35 -117c0 14 10 24 23 27c46 15 70 46 68 90c-29 8 -57 32 -57 68v8c0 38 27 67 68 67c45 0 72 -34 72 -88v-11c0 -68 -18 -114 -49 -146c-27 -26 -66 -43 -94 -43
c-21 0 -31 13 -31 28z" />
    <glyph glyph-name="less" unicode="&#x3c;" horiz-adv-x="634" 
d="M497 96c-9 0 -19 4 -27 8l-361 177c-30 14 -48 37 -48 67v8c0 30 18 53 48 67l361 177c10 5 19 8 31 8c26 1 49 -22 49 -51c0 -23 -13 -40 -34 -50l-329 -154l329 -155c21 -10 34 -28 34 -51c0 -30 -23 -51 -53 -51z" />
    <glyph glyph-name="equal" unicode="=" horiz-adv-x="634" 
d="M127 421c-31 0 -56 25 -56 56s25 56 56 56h380c31 0 56 -25 56 -56s-25 -56 -56 -56h-380zM127 171c-31 0 -56 25 -56 56c0 30 25 56 56 56h380c31 0 56 -26 56 -56c0 -31 -25 -56 -56 -56h-380z" />
    <glyph glyph-name="greater" unicode="&#x3e;" horiz-adv-x="634" 
d="M137 608c9 0 19 -4 27 -8l360 -177c31 -14 49 -37 49 -67v-8c0 -30 -18 -53 -49 -67l-360 -177c-10 -5 -19 -8 -31 -8c-26 -1 -49 22 -49 51c0 23 13 40 34 49l329 155l-329 155c-21 10 -34 28 -34 51c0 30 23 51 53 51z" />
    <glyph glyph-name="question" unicode="?" horiz-adv-x="541" 
d="M251 216h-6c-23 0 -40 17 -43 40l-10 86c-4 27 12 47 39 50c94 9 146 45 146 108v2c0 56 -43 95 -115 95c-53 0 -96 -19 -136 -55c-10 -8 -23 -14 -37 -14c-31 0 -56 25 -56 55c0 15 6 31 20 43c53 50 120 83 212 83c140 0 235 -78 235 -203v-2
c0 -126 -91 -183 -202 -202l-4 -46c-4 -22 -20 -40 -43 -40zM174 74c0 39 30 69 71 69s71 -30 71 -69v-10c0 -39 -30 -69 -71 -69s-71 30 -71 69v10z" />
    <glyph glyph-name="at" unicode="@" horiz-adv-x="980" 
d="M499 -162c-256 0 -446 197 -446 436s193 438 438 438s436 -189 436 -396c0 -168 -91 -249 -194 -249c-78 0 -125 33 -148 70c-36 -37 -85 -70 -155 -70c-100 0 -181 74 -181 189c0 142 111 250 227 250c72 0 115 -34 141 -74l3 18c6 33 24 50 52 50c29 0 54 -25 48 -61
l-38 -214c-3 -18 -5 -34 -5 -43c0 -43 29 -71 78 -71c71 0 132 68 132 205c0 184 -169 358 -396 358s-398 -180 -398 -400c0 -221 169 -398 406 -398c96 0 166 21 238 62c3 2 8 3 11 3c9 0 16 -9 16 -18c0 -8 -4 -13 -9 -15c-74 -44 -156 -70 -256 -70zM457 154
c73 0 138 72 138 158c0 64 -45 108 -105 108c-73 0 -138 -68 -138 -158c0 -69 43 -108 105 -108z" />
    <glyph glyph-name="A" unicode="A" horiz-adv-x="773" 
d="M42 52c0 9 3 18 8 28l260 580c14 31 39 50 74 50h6c35 0 59 -19 73 -50l260 -580c5 -9 7 -18 7 -26c0 -33 -25 -59 -58 -59c-29 0 -49 17 -60 43l-57 131h-340l-59 -135c-10 -25 -31 -39 -57 -39c-32 0 -57 25 -57 57zM262 278h246l-123 283z" />
    <glyph glyph-name="B" unicode="B" horiz-adv-x="722" 
d="M90 62v576c0 35 27 62 62 62h252c80 0 143 -22 183 -62c31 -31 47 -69 47 -116v-2c0 -84 -48 -129 -100 -156c82 -28 139 -75 139 -170v-2c0 -125 -103 -192 -259 -192h-262c-35 0 -62 27 -62 62zM211 405h168c79 0 132 31 132 95v2c0 55 -44 89 -123 89h-177v-186z
M211 109h204c84 0 135 33 135 96v2c0 59 -47 94 -144 94h-195v-192z" />
    <glyph glyph-name="C" unicode="C" horiz-adv-x="738" 
d="M415 -12c-204 0 -356 159 -356 360v2c0 199 149 362 361 362c108 0 179 -32 240 -79c13 -10 24 -27 24 -49c0 -34 -27 -60 -61 -60c-17 0 -29 6 -37 12c-48 39 -100 63 -167 63c-133 0 -231 -110 -231 -247v-2c0 -137 97 -248 231 -248c74 0 124 24 175 67
c9 8 22 14 37 14c31 0 58 -26 58 -57c0 -19 -9 -34 -20 -44c-66 -58 -141 -94 -254 -94z" />
    <glyph glyph-name="D" unicode="D" horiz-adv-x="782" 
d="M90 62v576c0 35 27 62 62 62h199c220 0 372 -151 372 -348v-2c0 -197 -152 -350 -372 -350h-199c-35 0 -62 27 -62 62zM213 112h138c147 0 243 99 243 236v2c0 137 -96 238 -243 238h-138v-476z" />
    <glyph glyph-name="E" unicode="E" horiz-adv-x="670" 
d="M152 0c-35 0 -62 27 -62 62v576c0 35 27 62 62 62h407c30 0 55 -25 55 -55c0 -31 -25 -55 -55 -55h-346v-182h301c30 0 55 -25 55 -56c0 -30 -25 -54 -55 -54h-301v-188h351c30 0 55 -25 55 -55c0 -31 -25 -55 -55 -55h-412z" />
    <glyph glyph-name="F" unicode="F" horiz-adv-x="656" 
d="M90 56v582c0 35 27 62 62 62h408c31 0 56 -25 56 -56s-25 -56 -56 -56h-347v-191h302c31 0 56 -25 56 -56s-25 -56 -56 -56h-302v-229c0 -34 -27 -61 -61 -61c-35 0 -62 27 -62 61z" />
    <glyph glyph-name="G" unicode="G" horiz-adv-x="784" 
d="M422 -12c-219 0 -363 156 -363 360v2c0 196 150 362 361 362c105 0 175 -25 239 -71c12 -9 25 -26 25 -50c0 -33 -27 -61 -61 -61c-16 0 -28 7 -38 14c-45 33 -94 55 -170 55c-129 0 -227 -113 -227 -247v-2c0 -144 95 -250 238 -250c66 0 126 21 169 53v131h-138
c-30 0 -55 23 -55 53s25 54 55 54h195c35 0 62 -27 62 -62v-187c0 -35 -14 -60 -43 -78c-60 -40 -144 -76 -249 -76z" />
    <glyph glyph-name="H" unicode="H" horiz-adv-x="760" 
d="M90 56v588c0 34 27 61 62 61c34 0 61 -27 61 -61v-235h334v235c0 34 27 61 61 61c35 0 62 -27 62 -61v-588c0 -34 -27 -61 -62 -61c-34 0 -61 27 -61 61v239h-334v-239c0 -34 -27 -61 -61 -61c-35 0 -62 27 -62 61z" />
    <glyph glyph-name="I" unicode="I" horiz-adv-x="317" 
d="M97 56v588c0 34 27 61 62 61c34 0 61 -27 61 -61v-588c0 -34 -27 -61 -61 -61c-35 0 -62 27 -62 61z" />
    <glyph glyph-name="J" unicode="J" horiz-adv-x="560" 
d="M245 -10c-85 0 -147 33 -191 77c-11 10 -21 27 -21 46c0 33 26 59 59 59c16 0 27 -5 38 -14c34 -35 67 -54 114 -54c68 0 113 44 113 138v402c0 34 28 61 62 61s62 -27 62 -61v-406c0 -83 -25 -145 -66 -186s-100 -62 -170 -62z" />
    <glyph glyph-name="K" unicode="K" horiz-adv-x="713" 
d="M90 56v588c0 34 27 61 62 61c34 0 61 -27 61 -61v-296l332 334c14 15 29 23 51 23c34 0 57 -27 57 -57c0 -19 -8 -33 -22 -46l-218 -210l236 -293c10 -13 17 -25 17 -44c0 -34 -27 -60 -62 -60c-24 0 -39 12 -52 29l-225 287l-114 -110v-145c0 -34 -27 -61 -61 -61
c-35 0 -62 27 -62 61z" />
    <glyph glyph-name="L" unicode="L" horiz-adv-x="619" 
d="M90 62v582c0 34 27 61 62 61c34 0 61 -27 61 -61v-532h317c31 0 56 -25 56 -56s-25 -56 -56 -56h-378c-35 0 -62 27 -62 62z" />
    <glyph glyph-name="M" unicode="M" horiz-adv-x="868" 
d="M90 55v587c0 34 27 62 62 62h13c27 0 45 -14 57 -33l212 -332l213 333c13 21 31 32 56 32h13c35 0 62 -28 62 -62v-586c0 -34 -27 -61 -62 -61c-33 0 -61 28 -61 61v420l-171 -257c-13 -20 -29 -32 -52 -32c-22 0 -38 12 -51 32l-170 255v-419c0 -34 -27 -60 -61 -60
s-60 26 -60 60z" />
    <glyph glyph-name="N" unicode="N" horiz-adv-x="790" 
d="M90 55v587c0 34 27 62 62 62h13c30 0 47 -15 64 -36l350 -453v430c0 33 27 60 60 60c34 0 61 -27 61 -60v-588c0 -34 -26 -61 -60 -61h-5c-29 0 -47 15 -64 37l-360 466v-444c0 -33 -27 -60 -60 -60c-34 0 -61 27 -61 60z" />
    <glyph glyph-name="O" unicode="O" horiz-adv-x="850" 
d="M424 -12c-215 0 -365 163 -365 360v2c0 197 152 362 367 362s365 -163 365 -360v-2c0 -197 -152 -362 -367 -362zM426 102c139 0 236 110 236 246v2c0 136 -99 249 -238 249s-236 -111 -236 -247v-2c0 -136 99 -248 238 -248z" />
    <glyph glyph-name="P" unicode="P" horiz-adv-x="668" 
d="M90 56v582c0 35 27 62 62 62h214c164 0 266 -93 266 -234v-2c0 -157 -126 -239 -280 -239h-139v-169c0 -34 -27 -61 -61 -61c-35 0 -62 27 -62 61zM213 336h143c93 0 151 52 151 125v2c0 82 -59 125 -151 125h-143v-252z" />
    <glyph glyph-name="Q" unicode="Q" horiz-adv-x="850" 
d="M424 -12c-215 0 -365 163 -365 360v2c0 197 152 362 367 362s365 -163 365 -360v-2c0 -79 -26 -154 -71 -215l45 -37c14 -12 23 -27 23 -48c0 -32 -26 -59 -58 -59c-18 0 -32 7 -43 18l-50 45c-59 -42 -132 -66 -213 -66zM460 208c-14 12 -23 27 -23 48c0 32 26 59 58 59
c18 0 29 -6 43 -18l90 -82c22 38 34 83 34 133v2c0 136 -99 249 -238 249s-236 -111 -236 -247v-2c0 -136 99 -248 238 -248c46 0 87 12 121 32z" />
    <glyph glyph-name="R" unicode="R" horiz-adv-x="723" 
d="M90 56v582c0 35 27 62 62 62h250c88 0 157 -26 202 -70c37 -38 58 -90 58 -151v-2c0 -112 -65 -180 -159 -209l134 -169c12 -15 20 -28 20 -47c0 -34 -29 -57 -59 -57c-28 0 -46 13 -60 32l-170 217h-155v-188c0 -34 -27 -61 -61 -61c-35 0 -62 27 -62 61zM213 353h180
c88 0 144 46 144 117v2c0 75 -54 116 -145 116h-179v-235z" />
    <glyph glyph-name="S" unicode="S" horiz-adv-x="640" 
d="M335 -10c-95 0 -185 30 -263 88c-14 10 -24 27 -24 47c0 32 26 57 58 57c17 0 28 -5 36 -11c58 -46 120 -72 196 -72s124 36 124 88v2c0 50 -28 77 -158 107c-149 36 -233 80 -233 209v2c0 120 100 203 239 203c88 0 159 -23 222 -65c14 -8 27 -25 27 -49
c0 -32 -26 -57 -58 -57c-12 0 -22 3 -32 9c-54 35 -106 53 -161 53c-72 0 -114 -37 -114 -83v-2c0 -54 32 -78 167 -110c148 -36 224 -89 224 -205v-2c0 -131 -103 -209 -250 -209z" />
    <glyph glyph-name="T" unicode="T" horiz-adv-x="648" 
d="M262 56v530h-170c-32 0 -57 26 -57 57s25 57 57 57h465c31 0 56 -26 56 -57s-25 -57 -56 -57h-171v-530c0 -34 -28 -61 -62 -61s-62 27 -62 61z" />
    <glyph glyph-name="U" unicode="U" horiz-adv-x="757" 
d="M377 -11c-182 0 -298 105 -298 308v347c0 34 27 61 62 61c34 0 61 -27 61 -61v-342c0 -130 67 -199 177 -199c109 0 176 65 176 194v347c0 34 27 61 62 61c34 0 61 -27 61 -61v-341c0 -209 -118 -314 -301 -314z" />
    <glyph glyph-name="V" unicode="V" horiz-adv-x="733" 
d="M363 -10c-34 0 -57 19 -70 50l-245 576c-4 9 -7 18 -7 29c0 33 27 60 62 60c32 0 53 -18 63 -44l202 -505l205 509c8 21 30 40 59 40c34 0 61 -26 61 -59c0 -9 -3 -19 -6 -26l-246 -580c-13 -31 -36 -50 -71 -50h-7z" />
    <glyph glyph-name="W" unicode="W" horiz-adv-x="1099" 
d="M254 41l-207 580c-3 7 -5 16 -5 24c0 34 29 60 63 60c30 0 53 -19 61 -45l161 -481l158 479c10 29 31 49 62 49h9c31 0 53 -20 62 -49l158 -479l161 482c9 25 30 44 60 44c33 0 61 -26 61 -59c0 -8 -3 -18 -6 -25l-207 -580c-11 -31 -34 -51 -64 -51h-12
c-30 0 -52 19 -63 51l-156 457l-156 -457c-11 -32 -34 -51 -64 -51h-12c-30 0 -52 19 -64 51z" />
    <glyph glyph-name="X" unicode="X" horiz-adv-x="714" 
d="M54 52c0 17 7 31 18 46l208 258l-196 243c-10 13 -19 29 -19 46c0 34 26 60 61 60c26 0 41 -10 56 -30l177 -233l175 229c16 22 33 34 60 34s56 -22 56 -56c0 -18 -7 -32 -19 -47l-196 -244l206 -257c10 -13 19 -28 19 -46c0 -34 -26 -60 -61 -60c-26 0 -41 10 -56 30
l-188 245l-185 -241c-17 -22 -33 -34 -60 -34c-28 0 -56 22 -56 57z" />
    <glyph glyph-name="Y" unicode="Y" horiz-adv-x="696" 
d="M287 56v216l-241 331c-8 12 -14 26 -14 43c0 33 27 59 62 59c27 0 45 -15 60 -37l195 -281l198 282c15 22 33 37 59 37c36 0 60 -27 60 -60c0 -17 -8 -32 -17 -44l-239 -327v-219c0 -34 -27 -61 -62 -61c-34 0 -61 27 -61 61z" />
    <glyph glyph-name="Z" unicode="Z" horiz-adv-x="702" 
d="M116 0c-29 0 -55 25 -55 54v3c0 21 8 40 23 57l394 477h-351c-29 0 -54 24 -54 54s25 55 54 55h460c30 0 55 -25 55 -54v-3c0 -21 -8 -39 -22 -57l-395 -477h364c30 0 55 -25 55 -55s-25 -54 -55 -54h-473z" />
    <glyph glyph-name="bracketleft" unicode="[" horiz-adv-x="455" 
d="M88 -70v710c0 33 26 60 59 60h206c26 0 48 -22 48 -48s-22 -47 -48 -47h-149v-640h149c26 0 48 -21 48 -47s-22 -48 -48 -48h-206c-33 0 -59 27 -59 60z" />
    <glyph glyph-name="backslash" unicode="\" horiz-adv-x="521" 
d="M521 -87c0 -25 -22 -46 -48 -46c-20 0 -34 10 -43 28l-410 838c-2 6 -5 15 -5 24c0 25 21 46 47 46c20 0 35 -10 44 -28l409 -838c3 -6 6 -15 6 -24z" />
    <glyph glyph-name="bracketright" unicode="]" horiz-adv-x="455" 
d="M367 640v-710c0 -33 -27 -60 -60 -60h-206c-26 0 -47 22 -47 48s21 47 47 47h150v640h-150c-26 0 -47 21 -47 47s21 48 47 48h206c33 0 60 -27 60 -60z" />
    <glyph glyph-name="asciicircum" unicode="^" horiz-adv-x="500" 
d="M249 625l-72 -93c-27 -35 -43 -44 -72 -44c-16 0 -28 8 -28 20c0 9 4 19 12 30l95 130c16 23 33 36 61 36h9c28 0 45 -13 62 -36l95 -130c7 -11 11 -21 11 -30c0 -12 -12 -20 -28 -20c-30 0 -46 9 -73 44z" />
    <glyph glyph-name="underscore" unicode="_" horiz-adv-x="600" 
d="M-2 -160c-26 0 -47 21 -47 47s21 47 47 47h604c26 0 47 -21 47 -47s-21 -47 -47 -47h-604z" />
    <glyph glyph-name="grave" unicode="`" horiz-adv-x="500" 
d="M293 590c-28 0 -47 5 -70 27l-68 64c-10 9 -17 19 -17 30c0 19 40 39 72 39c21 0 37 -11 48 -29l57 -88c4 -6 9 -15 9 -22c0 -13 -13 -21 -31 -21z" />
    <glyph glyph-name="a" unicode="a" horiz-adv-x="587" 
d="M228 -11c-99 0 -187 57 -187 163v2c0 114 89 170 218 170c59 0 101 -9 142 -22v13c0 75 -46 115 -131 115c-46 0 -84 -8 -117 -21c-7 -2 -13 -3 -19 -3c-28 0 -51 22 -51 50c0 22 15 41 33 48c50 19 101 31 170 31c79 0 138 -21 175 -59c39 -38 57 -94 57 -163v-260
c0 -33 -26 -58 -59 -58c-35 0 -59 24 -59 51v20c-36 -43 -91 -77 -172 -77zM262 77c80 0 141 46 141 113v36c-31 12 -72 21 -120 21c-78 0 -124 -33 -124 -88v-2c0 -51 45 -80 103 -80z" />
    <glyph glyph-name="b" unicode="b" 
d="M76 55v620c0 34 26 60 60 60s61 -26 61 -60v-235c39 55 94 99 180 99c124 0 245 -98 245 -274v-2c0 -175 -120 -274 -245 -274c-88 0 -143 44 -180 93v-27c0 -33 -27 -60 -61 -60c-33 0 -60 27 -60 60zM348 94c83 0 151 65 151 169v2c0 102 -69 169 -151 169
s-154 -68 -154 -169v-2c0 -101 72 -169 154 -169z" />
    <glyph glyph-name="c" unicode="c" horiz-adv-x="571" 
d="M320 -12c-157 0 -273 123 -273 273v2c0 150 116 276 275 276c83 0 140 -27 185 -66c8 -7 19 -22 19 -42c0 -31 -25 -55 -56 -55c-15 0 -28 6 -36 12c-31 26 -65 45 -113 45c-88 0 -153 -76 -153 -168v-2c0 -94 65 -169 158 -169c48 0 85 19 118 47c7 6 19 13 33 13
c29 0 52 -24 52 -53c0 -16 -6 -29 -17 -38c-47 -45 -104 -75 -192 -75z" />
    <glyph glyph-name="d" unicode="d" 
d="M595 675v-620c0 -34 -27 -60 -60 -60c-34 0 -61 26 -61 60v33c-39 -55 -94 -99 -180 -99c-124 0 -245 99 -245 274v2c0 175 119 274 245 274c87 0 142 -43 180 -93v229c0 34 27 60 60 60c34 0 61 -26 61 -60zM323 434c-83 0 -152 -64 -152 -169v-2
c0 -102 70 -169 152 -169c81 0 153 68 153 169v2c0 102 -72 169 -153 169z" />
    <glyph glyph-name="e" unicode="e" horiz-adv-x="604" 
d="M167 301h271c-8 78 -54 139 -134 139c-74 0 -126 -57 -137 -139zM508 58c-48 -43 -108 -70 -190 -70c-153 0 -271 111 -271 274v2c0 151 107 275 258 275c168 0 251 -138 251 -260c0 -34 -26 -58 -57 -58h-331c13 -86 74 -134 152 -134c51 0 91 18 125 46
c9 7 17 11 31 11c27 0 48 -21 48 -49c0 -15 -7 -28 -16 -37z" />
    <glyph glyph-name="f" unicode="f" horiz-adv-x="376" 
d="M103 55v369h-21c-28 0 -51 22 -51 50s23 51 51 51h21v39c0 58 15 102 43 130s67 42 119 42c24 0 44 -2 61 -5c22 -3 42 -23 42 -50c0 -28 -23 -51 -51 -50c-7 1 -17 2 -25 2c-46 0 -70 -25 -70 -80v-29h94c29 0 51 -22 51 -50s-23 -50 -51 -50h-92v-369
c0 -33 -27 -60 -61 -60c-33 0 -60 27 -60 60z" />
    <glyph glyph-name="g" unicode="g" 
d="M311 -162c-74 0 -140 16 -204 47c-21 8 -34 25 -34 48c0 27 23 50 51 50c9 0 16 -2 22 -5c48 -27 101 -42 162 -42c108 0 167 56 167 162v41c-44 -57 -99 -97 -186 -97c-124 0 -240 92 -240 247v2c0 156 117 248 240 248c89 0 144 -41 185 -90v25c0 33 27 60 60 60
c34 0 61 -27 61 -61v-365c0 -89 -23 -155 -67 -199c-48 -48 -122 -71 -217 -71zM321 145c84 0 155 59 155 145v2c0 86 -71 145 -155 145s-150 -58 -150 -145v-2c0 -86 67 -145 150 -145z" />
    <glyph glyph-name="h" unicode="h" horiz-adv-x="620" 
d="M76 55v620c0 33 26 60 60 60s61 -27 61 -60v-228c34 49 83 92 165 92c119 0 188 -80 188 -202v-282c0 -34 -26 -60 -60 -60s-61 26 -61 60v245c0 82 -41 129 -113 129c-70 0 -119 -49 -119 -131v-243c0 -34 -27 -60 -61 -60c-33 0 -60 26 -60 60z" />
    <glyph glyph-name="i" unicode="i" horiz-adv-x="286" 
d="M74 664v6c0 36 30 59 69 59s69 -23 69 -59v-6c0 -36 -30 -60 -69 -60s-69 24 -69 60zM83 55v418c0 34 26 61 60 61s61 -27 61 -61v-418c0 -34 -27 -60 -61 -60c-33 0 -60 26 -60 60z" />
    <glyph glyph-name="j" unicode="j" horiz-adv-x="286" 
d="M58 -163h-9c-38 1 -66 17 -66 50c0 30 22 50 48 50c2 0 6 -1 7 -1c27 0 45 17 45 57v480c0 34 26 61 60 61s61 -27 61 -61v-480c0 -107 -57 -156 -146 -156zM74 664v6c0 36 30 59 69 59s69 -23 69 -59v-6c0 -36 -30 -60 -69 -60s-69 24 -69 60z" />
    <glyph glyph-name="k" unicode="k" horiz-adv-x="580" 
d="M76 55v620c0 33 26 60 60 60s61 -27 61 -60v-390l227 223c16 16 31 26 52 26c32 0 53 -26 53 -55c0 -20 -10 -35 -27 -51l-140 -129l160 -209c11 -15 16 -26 16 -40c0 -33 -26 -55 -57 -55c-24 0 -38 8 -53 27l-151 201l-80 -76v-92c0 -34 -27 -60 -61 -60
c-33 0 -60 26 -60 60z" />
    <glyph glyph-name="l" unicode="l" horiz-adv-x="286" 
d="M83 55v620c0 33 26 60 60 60s61 -27 61 -60v-620c0 -34 -27 -60 -61 -60c-33 0 -60 26 -60 60z" />
    <glyph glyph-name="m" unicode="m" horiz-adv-x="950" 
d="M76 55v418c0 34 26 61 60 61s61 -27 61 -61v-25c34 47 80 91 161 91c76 0 130 -37 158 -93c42 56 98 93 178 93c115 0 185 -73 185 -202v-282c0 -34 -26 -60 -60 -60s-61 26 -61 60v245c0 84 -39 129 -107 129c-66 0 -113 -46 -113 -131v-243c0 -34 -27 -60 -60 -60
c-34 0 -61 26 -61 60v246c0 82 -40 128 -107 128s-113 -50 -113 -131v-243c0 -34 -27 -60 -61 -60c-33 0 -60 26 -60 60z" />
    <glyph glyph-name="n" unicode="n" horiz-adv-x="620" 
d="M76 55v418c0 34 26 61 60 61s61 -27 61 -61v-26c34 49 83 92 165 92c119 0 188 -80 188 -202v-282c0 -34 -26 -60 -60 -60s-61 26 -61 60v245c0 82 -41 129 -113 129c-70 0 -119 -49 -119 -131v-243c0 -34 -27 -60 -61 -60c-33 0 -60 26 -60 60z" />
    <glyph glyph-name="o" unicode="o" horiz-adv-x="657" 
d="M327 -12c-161 0 -280 123 -280 273v2c0 151 120 276 282 276s281 -123 281 -274v-2c0 -150 -120 -275 -283 -275zM329 94c98 0 160 76 160 167v2c0 93 -67 170 -162 170c-97 0 -159 -76 -159 -168v-2c0 -92 67 -169 161 -169z" />
    <glyph glyph-name="p" unicode="p" 
d="M76 -105v578c0 34 26 61 60 61s61 -27 61 -61v-33c39 55 94 99 180 99c124 0 245 -98 245 -274v-2c0 -175 -120 -274 -245 -274c-88 0 -143 44 -180 93v-187c0 -34 -27 -60 -61 -60c-33 0 -60 26 -60 60zM348 94c83 0 151 65 151 169v2c0 102 -69 169 -151 169
s-154 -68 -154 -169v-2c0 -101 72 -169 154 -169z" />
    <glyph glyph-name="q" unicode="q" 
d="M595 473v-578c0 -34 -27 -60 -60 -60c-34 0 -61 26 -61 60v193c-39 -55 -94 -99 -180 -99c-124 0 -245 99 -245 274v2c0 175 119 274 245 274c87 0 142 -43 180 -93v28c0 33 27 60 60 60c34 0 61 -27 61 -61zM323 434c-83 0 -152 -64 -152 -169v-2
c0 -102 70 -169 152 -169c81 0 153 68 153 169v2c0 102 -72 169 -153 169z" />
    <glyph glyph-name="r" unicode="r" horiz-adv-x="413" 
d="M76 55v418c0 34 26 61 60 61s61 -27 61 -61v-54c28 66 80 116 133 116c38 0 60 -25 60 -60c0 -32 -21 -53 -48 -58c-86 -15 -145 -81 -145 -206v-156c0 -33 -27 -60 -61 -60c-33 0 -60 26 -60 60z" />
    <glyph glyph-name="s" unicode="s" horiz-adv-x="501" 
d="M257 -10c-67 0 -140 21 -201 63c-13 7 -23 22 -23 42c0 27 21 49 49 49c10 0 19 -3 26 -7c51 -34 104 -51 152 -51c52 0 82 22 82 57v2c0 41 -56 55 -118 74c-78 22 -165 54 -165 155v2c0 100 83 161 188 161c56 0 115 -16 166 -43c17 -9 29 -25 29 -46
c0 -28 -22 -49 -50 -49c-10 0 -16 2 -24 6c-43 22 -87 36 -124 36c-47 0 -74 -22 -74 -52v-2c0 -39 57 -55 119 -75c77 -24 164 -59 164 -154v-2c0 -111 -86 -166 -196 -166z" />
    <glyph glyph-name="t" unicode="t" horiz-adv-x="411" 
d="M253 -9c-89 0 -152 39 -152 155v278h-20c-29 0 -52 23 -52 52s23 52 52 52h20v90c0 33 27 60 61 60c33 0 60 -27 60 -60v-90h95c29 0 53 -23 53 -52s-24 -52 -53 -52h-95v-259c0 -47 24 -66 65 -66c14 0 26 3 30 3c27 0 51 -22 51 -50c0 -22 -15 -40 -32 -47
c-26 -9 -51 -14 -83 -14z" />
    <glyph glyph-name="u" unicode="u" horiz-adv-x="620" 
d="M545 473v-418c0 -33 -27 -60 -61 -60c-33 0 -61 26 -61 60v27c-34 -50 -83 -93 -165 -93c-119 0 -188 80 -188 203v281c0 34 27 61 60 61c34 0 61 -27 61 -61v-245c0 -82 41 -128 113 -128c70 0 119 48 119 130v243c0 34 27 61 61 61c33 0 61 -27 61 -61z" />
    <glyph glyph-name="v" unicode="v" horiz-adv-x="586" 
d="M365 43c-14 -31 -36 -53 -69 -53h-6c-33 0 -55 21 -69 53l-176 403c-3 9 -7 19 -7 30c0 30 27 58 60 58s50 -19 60 -44l136 -350l138 352c9 21 25 42 57 42c33 0 59 -25 59 -58c0 -11 -4 -23 -7 -29z" />
    <glyph glyph-name="w" unicode="w" horiz-adv-x="853" 
d="M253 -9c-30 0 -55 17 -67 54l-142 402c-3 8 -6 21 -6 31c0 29 23 56 59 56c30 0 50 -20 59 -48l102 -320l103 320c9 28 31 48 62 48h7c31 0 53 -20 62 -48l104 -320l103 321c8 26 27 47 59 47c33 0 57 -26 57 -56c0 -9 -3 -21 -5 -27l-144 -406c-13 -37 -38 -54 -67 -54
h-4c-30 0 -55 17 -66 52l-103 314l-104 -314c-11 -35 -36 -52 -65 -52h-4z" />
    <glyph glyph-name="x" unicode="x" horiz-adv-x="573" 
d="M48 46c0 17 6 30 17 42l150 180l-139 165c-13 16 -20 30 -20 46c0 34 26 56 56 56c24 0 41 -11 56 -30l119 -156l121 155c14 18 31 31 52 31c32 0 57 -23 57 -53c0 -17 -7 -29 -17 -41l-143 -171l148 -175c13 -16 20 -30 20 -46c0 -34 -26 -56 -56 -56
c-24 0 -41 11 -56 31l-128 165l-128 -165c-14 -17 -31 -31 -53 -31c-31 0 -56 23 -56 53z" />
    <glyph glyph-name="y" unicode="y" horiz-adv-x="587" 
d="M172 -163c-34 0 -59 5 -84 15c-18 6 -38 21 -38 50c0 30 23 50 49 50c10 0 16 -2 22 -4c14 -4 25 -7 42 -7c36 0 55 15 75 56l4 11l-196 438c-4 9 -7 21 -7 29c0 34 26 59 60 59c31 0 48 -18 59 -46l142 -351l132 351c10 25 27 46 58 46c32 0 58 -25 58 -57
c0 -10 -3 -23 -5 -29l-193 -463c-45 -108 -93 -148 -178 -148z" />
    <glyph glyph-name="z" unicode="z" horiz-adv-x="560" 
d="M108 0c-34 0 -59 21 -59 49v2c0 23 8 38 27 58l281 320h-249c-28 0 -50 22 -50 49c0 28 22 50 50 50h348c33 0 58 -20 58 -48v-3c0 -23 -8 -38 -26 -58l-282 -320h260c28 0 50 -22 50 -50c0 -27 -22 -49 -50 -49h-358z" />
    <glyph glyph-name="braceleft" unicode="{" horiz-adv-x="487" 
d="M385 -135c-155 34 -196 96 -196 194c0 15 2 55 2 72c0 73 -26 106 -94 108c-32 2 -51 21 -51 48s19 46 51 48c68 3 94 35 94 109c0 17 -2 57 -2 72c0 97 41 159 196 193c31 7 55 -12 55 -41c0 -24 -16 -37 -28 -41c-97 -30 -111 -61 -111 -129c0 -20 2 -53 2 -74
c0 -78 -38 -116 -104 -137c67 -22 104 -59 104 -137c0 -21 -2 -54 -2 -74c0 -68 14 -99 111 -129c12 -4 28 -17 28 -41c0 -29 -24 -48 -55 -41z" />
    <glyph glyph-name="bar" unicode="|" horiz-adv-x="331" 
d="M117 -85v840c0 27 22 48 48 48c27 0 49 -21 49 -48v-840c0 -27 -22 -48 -49 -48c-26 0 -48 21 -48 48z" />
    <glyph glyph-name="braceright" unicode="}" horiz-adv-x="487" 
d="M102 709c155 -34 196 -96 196 -193c0 -15 -2 -55 -2 -72c0 -74 27 -106 95 -109c31 -2 50 -21 50 -48s-19 -46 -50 -48c-68 -2 -95 -35 -95 -108c0 -17 2 -57 2 -72c0 -98 -41 -160 -196 -194c-31 -7 -55 12 -55 41c0 24 16 37 29 41c96 30 110 61 110 129
c0 20 -2 53 -2 74c0 78 38 116 104 137c-67 22 -104 59 -104 137c0 21 2 54 2 74c0 68 -14 99 -110 129c-13 4 -29 17 -29 41c0 29 24 48 55 41z" />
    <glyph glyph-name="asciitilde" unicode="~" horiz-adv-x="495" 
d="M134 247c-6 -11 -17 -20 -32 -20c-20 0 -37 16 -37 34c0 5 1 16 4 22c21 58 48 91 102 91c55 0 108 -39 143 -39c24 0 35 9 47 31c6 11 17 21 32 21c20 0 37 -17 37 -34c0 -6 -1 -16 -4 -23c-21 -58 -48 -91 -102 -91c-55 0 -108 40 -143 40c-24 0 -35 -10 -47 -32z" />
    <glyph glyph-name="uni00A0" unicode="&#xa0;" horiz-adv-x="300" 
 />
    <glyph glyph-name="exclamdown" unicode="&#xa1;" horiz-adv-x="302" 
d="M188 448l35 -408c2 -24 -13 -43 -36 -43h-72c-23 0 -37 19 -35 43l35 408c2 22 16 36 36 36s35 -14 37 -36zM222 627c0 -40 -30 -70 -71 -70c-40 0 -71 30 -71 70v9c0 39 31 69 71 69c41 0 71 -30 71 -69v-9z" />
    <glyph glyph-name="cent" unicode="&#xa2;" horiz-adv-x="581" 
d="M219 41l11 55c-105 37 -178 138 -178 257v2c0 151 116 275 274 275h8l9 46c4 20 19 35 43 35c26 0 48 -23 41 -52l-8 -42c37 -12 68 -32 95 -55c9 -8 18 -21 18 -41c0 -30 -24 -54 -54 -54c-15 0 -27 6 -34 12c-16 13 -32 24 -50 32l-64 -326c47 1 85 19 118 48
c8 6 17 12 34 12c26 0 49 -23 49 -51c0 -15 -6 -28 -16 -37c-47 -45 -109 -77 -194 -77h-7l-11 -56c-4 -20 -19 -35 -42 -35c-27 0 -48 23 -42 52zM170 355c0 -68 32 -125 85 -153l63 323c-85 -3 -148 -77 -148 -168v-2z" />
    <glyph glyph-name="sterling" unicode="&#xa3;" horiz-adv-x="644" 
d="M58 43c0 20 11 37 33 44l51 15v176h-32c-29 0 -52 23 -52 52c0 28 23 52 52 52h32v92c0 73 22 134 62 174c39 40 96 62 168 62c92 0 151 -34 195 -81c11 -11 19 -25 19 -44c0 -34 -27 -60 -61 -60c-22 0 -36 10 -44 19c-31 33 -61 52 -107 52c-32 0 -55 -10 -74 -28
c-21 -22 -33 -55 -33 -97v-89h202c28 0 52 -24 52 -52c0 -29 -24 -52 -52 -52h-202v-171h276c30 0 54 -24 54 -54s-24 -53 -54 -53h-438c-28 0 -47 19 -47 43z" />
    <glyph glyph-name="yen" unicode="&#xa5;" horiz-adv-x="686" 
d="M402 264v-73h154c24 0 44 -20 44 -45c0 -24 -20 -44 -44 -44h-154v-48c0 -33 -26 -59 -59 -59s-59 26 -59 59v48h-154c-24 0 -44 20 -44 44c0 25 20 45 44 45h154v73h-154c-24 0 -44 20 -44 44c0 25 20 45 44 45h119l-184 252c-10 14 -15 27 -15 42c0 31 26 58 61 58
c26 0 44 -13 58 -34l175 -261l177 260c12 18 30 35 56 35c32 0 59 -22 59 -57c0 -17 -6 -31 -15 -43l-186 -252h121c24 0 44 -20 44 -45c0 -24 -20 -44 -44 -44h-154z" />
    <glyph glyph-name="section" unicode="&#xa7;" horiz-adv-x="632" 
d="M326 -10c-85 0 -154 27 -208 72c-9 8 -18 21 -18 38c0 28 22 50 50 50c13 0 24 -6 31 -12c42 -35 89 -56 144 -56c53 0 81 21 81 49v2c0 29 -29 47 -132 70c-155 35 -216 74 -216 146v2c0 65 46 100 107 116c-36 23 -55 57 -55 95v2c0 89 74 146 196 146
c85 0 154 -27 208 -72c9 -8 18 -21 18 -38c0 -28 -22 -49 -50 -49c-13 0 -24 5 -31 11c-42 35 -89 56 -144 56c-53 0 -81 -20 -81 -49v-2c0 -27 24 -45 132 -70c155 -35 216 -73 216 -146v-2c0 -64 -46 -100 -107 -116c35 -21 56 -57 56 -95v-2c0 -88 -75 -146 -197 -146z
M388 278c45 0 77 23 77 54v2c0 29 -32 49 -117 70c-51 13 -81 18 -104 18c-45 0 -77 -23 -77 -54v-2c0 -29 32 -49 118 -70c50 -13 80 -18 103 -18z" />
    <glyph glyph-name="dieresis" unicode="&#xa8;" horiz-adv-x="500" 
d="M350 720c36 0 65 -26 65 -62v-7c0 -36 -29 -61 -65 -61c-37 0 -66 25 -66 61v7c0 36 29 62 66 62zM151 720c36 0 65 -26 65 -62v-7c0 -36 -29 -61 -65 -61c-37 0 -66 25 -66 61v7c0 36 29 62 66 62z" />
    <glyph glyph-name="copyright" unicode="&#xa9;" horiz-adv-x="830" 
d="M414 -12c-203 0 -361 163 -361 360v2c0 197 160 362 363 362s361 -163 361 -360v-2c0 -197 -160 -362 -363 -362zM414 24c185 0 325 147 325 326v2c0 179 -139 324 -323 324c-185 0 -325 -147 -325 -326v-2c0 -179 139 -324 323 -324zM419 159c-110 0 -192 86 -192 194v2
c0 107 81 196 194 196c61 0 98 -17 130 -43c9 -6 16 -17 16 -30c0 -21 -16 -37 -36 -37c-8 0 -16 4 -24 10c-23 18 -52 32 -86 32c-68 0 -118 -57 -118 -127v-2c0 -69 50 -127 118 -127c38 0 65 13 92 36c5 4 12 9 22 9c19 0 35 -16 35 -35c0 -11 -5 -20 -11 -25
c-37 -32 -76 -53 -140 -53z" />
    <glyph glyph-name="ordfeminine" unicode="&#xaa;" horiz-adv-x="390" 
d="M159 403c-55 0 -103 31 -103 90v2c0 62 50 93 120 93c32 0 54 -5 76 -11v5c0 39 -25 61 -70 61c-24 0 -42 -5 -58 -11c-6 -2 -11 -3 -15 -3c-17 0 -30 13 -30 29c0 13 8 24 19 28c28 11 55 17 93 17c44 0 76 -11 97 -33c21 -20 31 -52 31 -89v-144c0 -18 -16 -33 -35 -33
c-17 0 -33 13 -33 31v8c-21 -24 -50 -40 -92 -40zM77 282c-16 0 -29 13 -29 29s13 29 29 29h222c16 0 30 -13 30 -29s-14 -29 -30 -29h-222zM177 454c43 0 75 25 75 60v18c-17 6 -37 11 -63 11c-40 0 -64 -17 -64 -45v-2c0 -26 22 -42 52 -42z" />
    <glyph glyph-name="guillemotleft" unicode="&#xab;" horiz-adv-x="606" 
d="M489 42c-19 0 -33 9 -42 21l-129 166c-9 12 -15 22 -15 35s6 24 15 35l126 163c10 14 27 24 45 24c28 0 49 -23 49 -50c0 -13 -6 -25 -14 -34l-105 -137l107 -140c9 -11 13 -20 13 -33c-1 -28 -22 -50 -50 -50zM237 42c-18 0 -33 9 -42 21l-129 166c-9 12 -14 22 -14 35
s5 24 14 35l126 163c11 14 27 24 46 24c27 0 48 -23 48 -50c0 -13 -6 -25 -13 -34l-106 -137l108 -140c8 -10 12 -21 12 -33c0 -28 -22 -50 -50 -50z" />
    <glyph glyph-name="registered" unicode="&#xae;" horiz-adv-x="382" 
d="M191 360c-98 0 -174 79 -174 174v1c0 95 77 175 174 175c98 0 174 -79 174 -174v-1c0 -95 -77 -175 -174 -175zM191 379c87 0 154 71 154 156v1c0 85 -66 155 -154 155c-87 0 -154 -71 -154 -156v-1c0 -85 66 -155 154 -155zM119 466v140c0 13 10 23 22 23h63
c43 0 73 -20 73 -60c0 -27 -14 -46 -36 -55l27 -33c5 -5 6 -10 6 -16c0 -12 -9 -21 -22 -21c-8 0 -13 4 -18 9l-42 52h-29v-39c0 -12 -10 -22 -22 -22s-22 10 -22 22zM163 541h38c20 0 31 10 31 25c0 16 -12 25 -31 25h-38v-50z" />
    <glyph glyph-name="macron" unicode="&#xaf;" horiz-adv-x="500" 
d="M383 606h-266c-24 0 -44 20 -44 44s20 44 44 44h266c24 0 44 -20 44 -44s-20 -44 -44 -44z" />
    <glyph glyph-name="degree" unicode="&#xb0;" horiz-adv-x="471" 
d="M236 381c-88 0 -167 75 -167 162v2c0 87 79 161 167 161c87 0 166 -74 166 -161v-2c0 -87 -79 -162 -166 -162zM236 447c54 0 94 45 94 96v2c0 51 -40 95 -94 95c-55 0 -95 -44 -95 -95v-2c0 -51 40 -96 95 -96z" />
    <glyph glyph-name="plusminus" unicode="&#xb1;" horiz-adv-x="634" 
d="M262 238l1 135h-141c-29 0 -53 24 -53 53s24 53 53 53h141l-1 135c0 31 24 55 55 55s55 -24 55 -55l-1 -135h140c30 0 54 -24 54 -53s-24 -53 -54 -53h-140l1 -135c0 -31 -24 -55 -55 -55s-55 24 -55 55zM120 0c-28 0 -51 23 -51 51c0 29 23 52 51 52h394
c28 0 51 -23 51 -52c0 -28 -23 -51 -51 -51h-394z" />
    <glyph glyph-name="acute" unicode="&#xb4;" horiz-adv-x="500" 
d="M207 590c-17 0 -30 8 -30 21c0 7 4 16 8 22l57 88c11 18 27 29 48 29c32 0 72 -20 72 -39c0 -11 -7 -21 -17 -30l-67 -64c-24 -22 -43 -27 -71 -27z" />
    <glyph glyph-name="paragraph" unicode="&#xb6;" horiz-adv-x="557" 
d="M346 56v188h-18c-164 0 -288 78 -288 227v2c0 142 111 227 271 227h97c35 0 62 -27 62 -62v-582c0 -34 -27 -61 -62 -61c-34 0 -62 27 -62 61z" />
    <glyph glyph-name="periodcentered" unicode="&#xb7;" horiz-adv-x="269" 
d="M64 311c0 39 31 69 71 69c39 0 70 -30 70 -69v-9c0 -40 -31 -70 -70 -70c-40 0 -71 30 -71 70v9z" />
    <glyph glyph-name="cedilla" unicode="&#xb8;" horiz-adv-x="500" 
d="M312 10l-61 -141c-8 -19 -18 -29 -39 -29c-24 0 -70 23 -70 44c0 8 3 16 8 23l71 103h91z" />
    <glyph glyph-name="ordmasculine" unicode="&#xba;" horiz-adv-x="390" 
d="M194 402c-86 0 -150 67 -150 150v2c0 83 65 151 152 151s150 -67 150 -150v-2c0 -83 -65 -151 -152 -151zM75 282c-16 0 -29 13 -29 29s13 29 29 29h240c16 0 29 -13 29 -29s-13 -29 -29 -29h-240zM196 464c49 0 80 40 80 88v2c0 48 -34 89 -82 89s-80 -40 -80 -88v-2
c0 -48 34 -89 82 -89z" />
    <glyph glyph-name="guillemotright" unicode="&#xbb;" horiz-adv-x="606" 
d="M369 486c18 0 33 -10 42 -22l129 -165c9 -12 15 -22 15 -36c0 -13 -6 -23 -15 -35l-126 -162c-11 -14 -27 -24 -46 -24c-27 0 -48 23 -48 50c0 12 6 25 13 34l106 136l-108 140c-8 11 -12 21 -12 34c0 28 22 50 50 50zM117 486c19 0 33 -10 42 -22l129 -165
c9 -12 15 -22 15 -36c0 -13 -6 -23 -15 -35l-126 -162c-10 -14 -27 -24 -45 -24c-28 0 -49 23 -49 50c0 12 6 25 14 34l105 136l-107 140c-9 11 -13 21 -13 34c1 28 22 50 50 50z" />
    <glyph glyph-name="questiondown" unicode="&#xbf;" horiz-adv-x="541" 
d="M290 484h6c23 0 40 -17 43 -40l10 -86c4 -27 -12 -46 -39 -50c-94 -9 -145 -45 -145 -108v-2c0 -56 43 -95 114 -95c53 0 96 19 136 55c10 8 23 14 37 14c31 0 56 -25 56 -55c0 -15 -6 -31 -20 -43c-53 -50 -120 -83 -212 -83c-140 0 -234 78 -234 203v2
c0 127 90 183 201 202l5 46c3 22 19 40 42 40zM367 627c0 -40 -30 -70 -71 -70s-71 30 -71 70v9c0 39 30 69 71 69s71 -30 71 -69v-9z" />
    <glyph glyph-name="Agrave" unicode="&#xc0;" horiz-adv-x="773" 
d="M42 52c0 9 3 18 8 28l260 580c14 31 39 50 74 50h6c35 0 59 -19 73 -50l260 -580c5 -9 7 -18 7 -26c0 -33 -25 -59 -58 -59c-29 0 -49 17 -60 43l-57 131h-340l-59 -135c-10 -25 -31 -39 -57 -39c-32 0 -57 25 -57 57zM262 278h246l-123 283zM389 763c-28 0 -47 5 -70 27
l-68 64c-10 9 -17 19 -17 30c0 19 40 39 72 39c21 0 37 -11 48 -29l57 -88c4 -6 9 -15 9 -22c0 -13 -13 -21 -31 -21z" />
    <glyph glyph-name="Aacute" unicode="&#xc1;" horiz-adv-x="773" 
d="M42 52c0 9 3 18 8 28l260 580c14 31 39 50 74 50h6c35 0 59 -19 73 -50l260 -580c5 -9 7 -18 7 -26c0 -33 -25 -59 -58 -59c-29 0 -49 17 -60 43l-57 131h-340l-59 -135c-10 -25 -31 -39 -57 -39c-32 0 -57 25 -57 57zM262 278h246l-123 283zM382 763c-17 0 -30 8 -30 21
c0 7 4 16 8 22l57 88c11 18 27 29 48 29c32 0 72 -20 72 -39c0 -11 -7 -21 -17 -30l-67 -64c-24 -22 -43 -27 -71 -27z" />
    <glyph glyph-name="Acircumflex" unicode="&#xc2;" horiz-adv-x="773" 
d="M42 52c0 9 3 18 8 28l260 580c14 31 39 50 74 50h6c35 0 59 -19 73 -50l260 -580c5 -9 7 -18 7 -26c0 -33 -25 -59 -58 -59c-29 0 -49 17 -60 43l-57 131h-340l-59 -135c-10 -25 -31 -39 -57 -39c-32 0 -57 25 -57 57zM262 278h246l-123 283zM384 835l-52 -45
c-26 -22 -46 -27 -74 -27c-15 0 -27 7 -27 20c0 7 6 16 12 24l66 83c15 18 30 29 58 29h36c28 0 44 -11 58 -29l66 -83c6 -8 12 -17 12 -24c0 -13 -13 -20 -29 -20c-28 0 -47 5 -74 27z" />
    <glyph glyph-name="Atilde" unicode="&#xc3;" horiz-adv-x="773" 
d="M42 52c0 9 3 18 8 28l260 580c14 31 39 50 74 50h6c35 0 59 -19 73 -50l260 -580c5 -9 7 -18 7 -26c0 -33 -25 -59 -58 -59c-29 0 -49 17 -60 43l-57 131h-340l-59 -135c-10 -25 -31 -39 -57 -39c-32 0 -57 25 -57 57zM262 278h246l-123 283zM277 776
c-7 -11 -17 -20 -33 -20c-20 0 -37 16 -37 33c0 6 2 16 4 23c21 58 49 91 102 91c55 0 108 -40 144 -40c23 0 34 10 46 32c7 11 18 20 33 20c20 0 37 -16 37 -33c0 -6 -2 -16 -4 -23c-21 -58 -49 -91 -102 -91c-55 0 -108 40 -144 40c-23 0 -34 -10 -46 -32z" />
    <glyph glyph-name="Adieresis" unicode="&#xc4;" horiz-adv-x="773" 
d="M42 52c0 9 3 18 8 28l260 580c14 31 39 50 74 50h6c35 0 59 -19 73 -50l260 -580c5 -9 7 -18 7 -26c0 -33 -25 -59 -58 -59c-29 0 -49 17 -60 43l-57 131h-340l-59 -135c-10 -25 -31 -39 -57 -39c-32 0 -57 25 -57 57zM262 278h246l-123 283zM485 893c36 0 65 -26 65 -62
v-7c0 -36 -29 -61 -65 -61c-37 0 -66 25 -66 61v7c0 36 29 62 66 62zM286 893c36 0 65 -26 65 -62v-7c0 -36 -29 -61 -65 -61c-37 0 -66 25 -66 61v7c0 36 29 62 66 62z" />
    <glyph glyph-name="Aring" unicode="&#xc5;" horiz-adv-x="790" 
d="M461 684l271 -605c5 -9 7 -17 7 -25c0 -32 -26 -59 -59 -59c-29 0 -48 17 -60 43l-57 131h-340l-58 -135c-11 -24 -31 -39 -57 -39c-33 0 -58 26 -58 57c0 9 4 18 7 26l272 606c-28 19 -48 51 -48 87v2c0 59 54 109 114 109s114 -50 114 -109v-2c0 -35 -19 -68 -48 -87z
M395 710c34 0 62 28 62 61v2c0 33 -28 61 -62 61s-62 -28 -62 -61v-2c0 -33 28 -61 62 -61zM270 278h246l-123 283z" />
    <glyph glyph-name="AE" unicode="&#xc6;" horiz-adv-x="1045" 
d="M34 45c0 12 4 26 10 35l337 577c15 27 37 43 72 43h481c30 0 55 -25 55 -55c0 -31 -25 -55 -55 -55h-324v-182h279c30 0 55 -25 55 -56c0 -30 -25 -54 -55 -54h-279v-188h329c30 0 55 -25 55 -55c0 -31 -25 -55 -55 -55h-390c-35 0 -62 27 -62 62v107h-264l-81 -141
c-13 -22 -30 -34 -54 -34c-30 0 -54 22 -54 51zM286 278h201v315h-20z" />
    <glyph glyph-name="Ccedilla" unicode="&#xc7;" horiz-adv-x="738" 
d="M669 82c-62 -55 -131 -89 -233 -93l-51 -120c-8 -19 -18 -29 -39 -29c-24 0 -70 23 -70 44c0 8 3 16 8 23l60 88c-167 31 -285 176 -285 353v2c0 199 149 362 361 362c108 0 179 -32 240 -79c13 -10 24 -27 24 -49c0 -34 -27 -60 -61 -60c-17 0 -29 6 -37 12
c-48 39 -100 63 -167 63c-133 0 -231 -110 -231 -247v-2c0 -137 97 -248 231 -248c74 0 124 24 175 67c9 8 22 14 37 14c31 0 58 -26 58 -57c0 -19 -9 -34 -20 -44z" />
    <glyph glyph-name="Egrave" unicode="&#xc8;" horiz-adv-x="670" 
d="M152 0c-35 0 -62 27 -62 62v576c0 35 27 62 62 62h407c30 0 55 -25 55 -55c0 -31 -25 -55 -55 -55h-346v-182h301c30 0 55 -25 55 -56c0 -30 -25 -54 -55 -54h-301v-188h351c30 0 55 -25 55 -55c0 -31 -25 -55 -55 -55h-412zM354 753c-28 0 -47 5 -70 27l-68 64
c-10 9 -17 19 -17 30c0 19 40 39 72 39c21 0 37 -11 48 -29l57 -88c4 -6 9 -15 9 -22c0 -13 -13 -21 -31 -21z" />
    <glyph glyph-name="Eacute" unicode="&#xc9;" horiz-adv-x="670" 
d="M348 753c-17 0 -30 8 -30 21c0 7 4 16 8 22l57 88c11 18 27 29 48 29c32 0 72 -20 72 -39c0 -11 -7 -21 -17 -30l-67 -64c-24 -22 -43 -27 -71 -27zM152 0c-35 0 -62 27 -62 62v576c0 35 27 62 62 62h407c30 0 55 -25 55 -55c0 -31 -25 -55 -55 -55h-346v-182h301
c30 0 55 -25 55 -56c0 -30 -25 -54 -55 -54h-301v-188h351c30 0 55 -25 55 -55c0 -31 -25 -55 -55 -55h-412z" />
    <glyph glyph-name="Ecircumflex" unicode="&#xca;" horiz-adv-x="670" 
d="M350 825l-52 -45c-26 -22 -46 -27 -74 -27c-15 0 -27 7 -27 20c0 7 6 16 12 24l66 83c15 18 30 29 58 29h36c28 0 44 -11 58 -29l66 -83c6 -8 12 -17 12 -24c0 -13 -13 -20 -29 -20c-28 0 -47 5 -74 27zM152 0c-35 0 -62 27 -62 62v576c0 35 27 62 62 62h407
c30 0 55 -25 55 -55c0 -31 -25 -55 -55 -55h-346v-182h301c30 0 55 -25 55 -56c0 -30 -25 -54 -55 -54h-301v-188h351c30 0 55 -25 55 -55c0 -31 -25 -55 -55 -55h-412z" />
    <glyph glyph-name="Edieresis" unicode="&#xcb;" horiz-adv-x="670" 
d="M451 883c36 0 65 -26 65 -62v-7c0 -36 -29 -61 -65 -61c-37 0 -66 25 -66 61v7c0 36 29 62 66 62zM252 883c36 0 65 -26 65 -62v-7c0 -36 -29 -61 -65 -61c-37 0 -66 25 -66 61v7c0 36 29 62 66 62zM152 0c-35 0 -62 27 -62 62v576c0 35 27 62 62 62h407
c30 0 55 -25 55 -55c0 -31 -25 -55 -55 -55h-346v-182h301c30 0 55 -25 55 -56c0 -30 -25 -54 -55 -54h-301v-188h351c30 0 55 -25 55 -55c0 -31 -25 -55 -55 -55h-412z" />
    <glyph glyph-name="Igrave" unicode="&#xcc;" horiz-adv-x="317" 
d="M97 56v588c0 34 27 61 62 61c34 0 61 -27 61 -61v-588c0 -34 -27 -61 -61 -61c-35 0 -62 27 -62 61zM162 753c-28 0 -47 5 -70 27l-68 64c-10 9 -17 19 -17 30c0 19 40 39 72 39c21 0 37 -11 48 -29l57 -88c4 -6 9 -15 9 -22c0 -13 -13 -21 -31 -21z" />
    <glyph glyph-name="Iacute" unicode="&#xcd;" horiz-adv-x="317" 
d="M97 56v588c0 34 27 61 62 61c34 0 61 -27 61 -61v-588c0 -34 -27 -61 -61 -61c-35 0 -62 27 -62 61zM156 753c-17 0 -30 8 -30 21c0 7 4 16 8 22l57 88c11 18 27 29 48 29c32 0 72 -20 72 -39c0 -11 -7 -21 -17 -30l-67 -64c-24 -22 -43 -27 -71 -27z" />
    <glyph glyph-name="Icircumflex" unicode="&#xce;" horiz-adv-x="317" 
d="M97 56v588c0 34 27 61 62 61c34 0 61 -27 61 -61v-588c0 -34 -27 -61 -61 -61c-35 0 -62 27 -62 61zM158 825l-52 -45c-26 -22 -46 -27 -74 -27c-15 0 -27 7 -27 20c0 7 6 16 12 24l66 83c15 18 30 29 58 29h36c28 0 44 -11 58 -29l66 -83c6 -8 12 -17 12 -24
c0 -13 -13 -20 -29 -20c-28 0 -47 5 -74 27z" />
    <glyph glyph-name="Idieresis" unicode="&#xcf;" horiz-adv-x="317" 
d="M97 56v588c0 34 27 61 62 61c34 0 61 -27 61 -61v-588c0 -34 -27 -61 -61 -61c-35 0 -62 27 -62 61zM259 883c36 0 65 -26 65 -62v-7c0 -36 -29 -61 -65 -61c-37 0 -66 25 -66 61v7c0 36 29 62 66 62zM60 883c36 0 65 -26 65 -62v-7c0 -36 -29 -61 -65 -61
c-37 0 -66 25 -66 61v7c0 36 29 62 66 62z" />
    <glyph glyph-name="Eth" unicode="&#xd0;" horiz-adv-x="812" 
d="M94 407h26v231c0 35 27 62 62 62h199c220 0 372 -151 372 -348v-2c0 -197 -152 -350 -372 -350h-199c-35 0 -62 27 -62 62v235h-26c-30 0 -54 25 -54 55c0 31 24 55 54 55zM242 588v-181h127c30 0 54 -24 54 -55c0 -30 -24 -55 -54 -55h-127v-185h139
c147 0 243 99 243 236v2c0 137 -96 238 -243 238h-139z" />
    <glyph glyph-name="Ntilde" unicode="&#xd1;" horiz-adv-x="790" 
d="M90 55v587c0 34 27 62 62 62h13c30 0 47 -15 64 -36l350 -453v430c0 33 27 60 60 60c34 0 61 -27 61 -60v-588c0 -34 -26 -61 -60 -61h-5c-29 0 -47 15 -64 37l-360 466v-444c0 -33 -27 -60 -60 -60c-34 0 -61 27 -61 60zM286 766c-7 -11 -17 -20 -33 -20
c-20 0 -37 16 -37 33c0 6 2 16 4 23c21 58 49 91 102 91c55 0 108 -40 144 -40c23 0 34 10 46 32c7 11 18 20 33 20c20 0 37 -16 37 -33c0 -6 -2 -16 -4 -23c-21 -58 -49 -91 -102 -91c-55 0 -108 40 -144 40c-23 0 -34 -10 -46 -32z" />
    <glyph glyph-name="Ograve" unicode="&#xd2;" horiz-adv-x="850" 
d="M424 -12c-215 0 -365 163 -365 360v2c0 197 152 362 367 362s365 -163 365 -360v-2c0 -197 -152 -362 -367 -362zM426 102c139 0 236 110 236 246v2c0 136 -99 249 -238 249s-236 -111 -236 -247v-2c0 -136 99 -248 238 -248zM428 763c-28 0 -47 5 -70 27l-68 64
c-10 9 -17 19 -17 30c0 19 40 39 72 39c21 0 37 -11 48 -29l57 -88c4 -6 9 -15 9 -22c0 -13 -13 -21 -31 -21z" />
    <glyph glyph-name="Oacute" unicode="&#xd3;" horiz-adv-x="850" 
d="M421 763c-17 0 -30 8 -30 21c0 7 4 16 8 22l57 88c11 18 27 29 48 29c32 0 72 -20 72 -39c0 -11 -7 -21 -17 -30l-67 -64c-24 -22 -43 -27 -71 -27zM424 -12c-215 0 -365 163 -365 360v2c0 197 152 362 367 362s365 -163 365 -360v-2c0 -197 -152 -362 -367 -362z
M426 102c139 0 236 110 236 246v2c0 136 -99 249 -238 249s-236 -111 -236 -247v-2c0 -136 99 -248 238 -248z" />
    <glyph glyph-name="Ocircumflex" unicode="&#xd4;" horiz-adv-x="850" 
d="M424 835l-52 -45c-26 -22 -46 -27 -74 -27c-15 0 -27 7 -27 20c0 7 6 16 12 24l66 83c15 18 30 29 58 29h36c28 0 44 -11 58 -29l66 -83c6 -8 12 -17 12 -24c0 -13 -13 -20 -29 -20c-28 0 -47 5 -74 27zM424 -12c-215 0 -365 163 -365 360v2c0 197 152 362 367 362
s365 -163 365 -360v-2c0 -197 -152 -362 -367 -362zM426 102c139 0 236 110 236 246v2c0 136 -99 249 -238 249s-236 -111 -236 -247v-2c0 -136 99 -248 238 -248z" />
    <glyph glyph-name="Otilde" unicode="&#xd5;" horiz-adv-x="850" 
d="M424 -12c-215 0 -365 163 -365 360v2c0 197 152 362 367 362s365 -163 365 -360v-2c0 -197 -152 -362 -367 -362zM426 102c139 0 236 110 236 246v2c0 136 -99 249 -238 249s-236 -111 -236 -247v-2c0 -136 99 -248 238 -248zM316 776c-7 -11 -17 -20 -33 -20
c-20 0 -37 16 -37 33c0 6 2 16 4 23c21 58 49 91 102 91c55 0 108 -40 144 -40c23 0 34 10 46 32c7 11 18 20 33 20c20 0 37 -16 37 -33c0 -6 -2 -16 -4 -23c-21 -58 -49 -91 -102 -91c-55 0 -108 40 -144 40c-23 0 -34 -10 -46 -32z" />
    <glyph glyph-name="Odieresis" unicode="&#xd6;" horiz-adv-x="850" 
d="M525 893c36 0 65 -26 65 -62v-7c0 -36 -29 -61 -65 -61c-37 0 -66 25 -66 61v7c0 36 29 62 66 62zM326 893c36 0 65 -26 65 -62v-7c0 -36 -29 -61 -65 -61c-37 0 -66 25 -66 61v7c0 36 29 62 66 62zM424 -12c-215 0 -365 163 -365 360v2c0 197 152 362 367 362
s365 -163 365 -360v-2c0 -197 -152 -362 -367 -362zM426 102c139 0 236 110 236 246v2c0 136 -99 249 -238 249s-236 -111 -236 -247v-2c0 -136 99 -248 238 -248z" />
    <glyph glyph-name="multiply" unicode="&#xd7;" horiz-adv-x="634" 
d="M520 481l-130 -128l131 -128c10 -10 17 -23 17 -40c0 -30 -24 -54 -54 -54c-17 0 -30 7 -40 16l-128 132l-129 -131c-10 -11 -23 -17 -39 -17c-29 0 -52 23 -52 52c0 16 7 30 18 40l130 128l-132 128c-9 10 -16 23 -16 40c0 30 24 54 54 54c17 0 30 -7 40 -17l128 -131
l129 131c10 11 23 17 38 17c30 0 53 -23 53 -53c0 -15 -7 -29 -18 -39z" />
    <glyph glyph-name="Oslash" unicode="&#xd8;" horiz-adv-x="850" 
d="M424 -12c-85 0 -159 25 -218 67l-48 -48c-9 -10 -22 -17 -38 -17c-25 0 -43 18 -43 40c0 15 8 28 17 37l47 49c-52 63 -82 144 -82 232v2c0 197 152 362 367 362c84 0 159 -25 218 -68l48 49c10 10 23 17 38 17c25 0 43 -18 43 -39c0 -16 -8 -29 -17 -38l-47 -49
c52 -63 82 -144 82 -232v-2c0 -197 -152 -362 -367 -362zM186 350c0 -53 15 -102 42 -143l334 349c-38 28 -85 45 -138 45c-139 0 -238 -112 -238 -249v-2zM426 99c139 0 238 112 238 249v2c0 53 -16 102 -42 143l-335 -350c39 -28 86 -44 139 -44z" />
    <glyph glyph-name="Ugrave" unicode="&#xd9;" horiz-adv-x="757" 
d="M377 -11c-182 0 -298 105 -298 308v347c0 34 27 61 62 61c34 0 61 -27 61 -61v-342c0 -130 67 -199 177 -199c109 0 176 65 176 194v347c0 34 27 61 62 61c34 0 61 -27 61 -61v-341c0 -209 -118 -314 -301 -314zM381 753c-28 0 -47 5 -70 27l-68 64c-10 9 -17 19 -17 30
c0 19 40 39 72 39c21 0 37 -11 48 -29l57 -88c4 -6 9 -15 9 -22c0 -13 -13 -21 -31 -21z" />
    <glyph glyph-name="Uacute" unicode="&#xda;" horiz-adv-x="757" 
d="M375 753c-17 0 -30 8 -30 21c0 7 4 16 8 22l57 88c11 18 27 29 48 29c32 0 72 -20 72 -39c0 -11 -7 -21 -17 -30l-67 -64c-24 -22 -43 -27 -71 -27zM377 -11c-182 0 -298 105 -298 308v347c0 34 27 61 62 61c34 0 61 -27 61 -61v-342c0 -130 67 -199 177 -199
c109 0 176 65 176 194v347c0 34 27 61 62 61c34 0 61 -27 61 -61v-341c0 -209 -118 -314 -301 -314z" />
    <glyph glyph-name="Ucircumflex" unicode="&#xdb;" horiz-adv-x="757" 
d="M377 825l-52 -45c-26 -22 -46 -27 -74 -27c-15 0 -27 7 -27 20c0 7 6 16 12 24l66 83c15 18 30 29 58 29h36c28 0 44 -11 58 -29l66 -83c6 -8 12 -17 12 -24c0 -13 -13 -20 -29 -20c-28 0 -47 5 -74 27zM377 -11c-182 0 -298 105 -298 308v347c0 34 27 61 62 61
c34 0 61 -27 61 -61v-342c0 -130 67 -199 177 -199c109 0 176 65 176 194v347c0 34 27 61 62 61c34 0 61 -27 61 -61v-341c0 -209 -118 -314 -301 -314z" />
    <glyph glyph-name="Udieresis" unicode="&#xdc;" horiz-adv-x="757" 
d="M478 883c36 0 65 -26 65 -62v-7c0 -36 -29 -61 -65 -61c-37 0 -66 25 -66 61v7c0 36 29 62 66 62zM279 883c36 0 65 -26 65 -62v-7c0 -36 -29 -61 -65 -61c-37 0 -66 25 -66 61v7c0 36 29 62 66 62zM377 -11c-182 0 -298 105 -298 308v347c0 34 27 61 62 61
c34 0 61 -27 61 -61v-342c0 -130 67 -199 177 -199c109 0 176 65 176 194v347c0 34 27 61 62 61c34 0 61 -27 61 -61v-341c0 -209 -118 -314 -301 -314z" />
    <glyph glyph-name="Yacute" unicode="&#xdd;" horiz-adv-x="696" 
d="M287 56v216l-241 331c-8 12 -14 26 -14 43c0 33 27 59 62 59c27 0 45 -15 60 -37l195 -281l198 282c15 22 33 37 59 37c36 0 60 -27 60 -60c0 -17 -8 -32 -17 -44l-239 -327v-219c0 -34 -27 -61 -62 -61c-34 0 -61 27 -61 61zM345 753c-17 0 -30 8 -30 21c0 7 4 16 8 22
l57 88c11 18 27 29 48 29c32 0 72 -20 72 -39c0 -11 -7 -21 -17 -30l-67 -64c-24 -22 -43 -27 -71 -27z" />
    <glyph glyph-name="Thorn" unicode="&#xde;" horiz-adv-x="673" 
d="M90 56v588c0 34 27 61 62 61c34 0 61 -27 61 -61v-53h153c164 0 266 -93 266 -234v-2c0 -158 -126 -239 -280 -239h-139v-60c0 -34 -27 -61 -61 -61c-35 0 -62 27 -62 61zM213 226h143c93 0 151 53 151 126v2c0 82 -59 125 -151 125h-143v-253z" />
    <glyph glyph-name="germandbls" unicode="&#xdf;" horiz-adv-x="620" 
d="M291 47c0 24 17 42 43 48c71 11 116 43 116 104v2c0 57 -48 89 -115 106c-23 7 -44 22 -44 53c0 24 11 40 26 50c52 29 92 68 92 126v2c0 58 -40 96 -101 96c-66 0 -112 -50 -112 -128v-452c0 -33 -27 -59 -61 -59c-33 0 -59 26 -59 59v448c0 145 92 235 238 235
c136 0 216 -83 216 -188v-2c0 -90 -53 -139 -111 -171c78 -26 152 -79 152 -178v-2c0 -130 -112 -197 -225 -199c-34 0 -55 21 -55 50z" />
    <glyph glyph-name="agrave" unicode="&#xe0;" horiz-adv-x="587" 
d="M228 -11c-99 0 -187 57 -187 163v2c0 114 89 170 218 170c59 0 101 -9 142 -22v13c0 75 -46 115 -131 115c-46 0 -84 -8 -117 -21c-7 -2 -13 -3 -19 -3c-28 0 -51 22 -51 50c0 22 15 41 33 48c50 19 101 31 170 31c79 0 138 -21 175 -59c39 -38 57 -94 57 -163v-260
c0 -33 -26 -58 -59 -58c-35 0 -59 24 -59 51v20c-36 -43 -91 -77 -172 -77zM262 77c80 0 141 46 141 113v36c-31 12 -72 21 -120 21c-78 0 -124 -33 -124 -88v-2c0 -51 45 -80 103 -80zM297 590c-28 0 -47 5 -70 27l-68 64c-10 9 -17 19 -17 30c0 19 40 39 72 39
c21 0 37 -11 48 -29l57 -88c4 -6 9 -15 9 -22c0 -13 -13 -21 -31 -21z" />
    <glyph glyph-name="aacute" unicode="&#xe1;" horiz-adv-x="587" 
d="M228 -11c-99 0 -187 57 -187 163v2c0 114 89 170 218 170c59 0 101 -9 142 -22v13c0 75 -46 115 -131 115c-46 0 -84 -8 -117 -21c-7 -2 -13 -3 -19 -3c-28 0 -51 22 -51 50c0 22 15 41 33 48c50 19 101 31 170 31c79 0 138 -21 175 -59c39 -38 57 -94 57 -163v-260
c0 -33 -26 -58 -59 -58c-35 0 -59 24 -59 51v20c-36 -43 -91 -77 -172 -77zM262 77c80 0 141 46 141 113v36c-31 12 -72 21 -120 21c-78 0 -124 -33 -124 -88v-2c0 -51 45 -80 103 -80zM291 590c-17 0 -30 8 -30 21c0 7 4 16 8 22l57 88c11 18 27 29 48 29
c32 0 72 -20 72 -39c0 -11 -7 -21 -17 -30l-67 -64c-24 -22 -43 -27 -71 -27z" />
    <glyph glyph-name="acircumflex" unicode="&#xe2;" horiz-adv-x="587" 
d="M228 -11c-99 0 -187 57 -187 163v2c0 114 89 170 218 170c59 0 101 -9 142 -22v13c0 75 -46 115 -131 115c-46 0 -84 -8 -117 -21c-7 -2 -13 -3 -19 -3c-28 0 -51 22 -51 50c0 22 15 41 33 48c50 19 101 31 170 31c79 0 138 -21 175 -59c39 -38 57 -94 57 -163v-260
c0 -33 -26 -58 -59 -58c-35 0 -59 24 -59 51v20c-36 -43 -91 -77 -172 -77zM262 77c80 0 141 46 141 113v36c-31 12 -72 21 -120 21c-78 0 -124 -33 -124 -88v-2c0 -51 45 -80 103 -80zM293 662l-52 -45c-26 -22 -46 -27 -74 -27c-15 0 -27 7 -27 20c0 7 6 16 12 24l66 83
c15 18 30 29 58 29h36c28 0 44 -11 58 -29l66 -83c6 -8 12 -17 12 -24c0 -13 -13 -20 -29 -20c-28 0 -47 5 -74 27z" />
    <glyph glyph-name="atilde" unicode="&#xe3;" horiz-adv-x="587" 
d="M228 -11c-99 0 -187 57 -187 163v2c0 114 89 170 218 170c59 0 101 -9 142 -22v13c0 75 -46 115 -131 115c-46 0 -84 -8 -117 -21c-7 -2 -13 -3 -19 -3c-28 0 -51 22 -51 50c0 22 15 41 33 48c50 19 101 31 170 31c79 0 138 -21 175 -59c39 -38 57 -94 57 -163v-260
c0 -33 -26 -58 -59 -58c-35 0 -59 24 -59 51v20c-36 -43 -91 -77 -172 -77zM186 603c-7 -11 -17 -20 -33 -20c-20 0 -37 16 -37 33c0 6 2 16 4 23c21 58 49 91 102 91c55 0 108 -40 144 -40c23 0 34 10 46 32c7 11 18 20 33 20c20 0 37 -16 37 -33c0 -6 -2 -16 -4 -23
c-21 -58 -49 -91 -102 -91c-55 0 -108 40 -144 40c-23 0 -34 -10 -46 -32zM262 77c80 0 141 46 141 113v36c-31 12 -72 21 -120 21c-78 0 -124 -33 -124 -88v-2c0 -51 45 -80 103 -80z" />
    <glyph glyph-name="adieresis" unicode="&#xe4;" horiz-adv-x="587" 
d="M228 -11c-99 0 -187 57 -187 163v2c0 114 89 170 218 170c59 0 101 -9 142 -22v13c0 75 -46 115 -131 115c-46 0 -84 -8 -117 -21c-7 -2 -13 -3 -19 -3c-28 0 -51 22 -51 50c0 22 15 41 33 48c50 19 101 31 170 31c79 0 138 -21 175 -59c39 -38 57 -94 57 -163v-260
c0 -33 -26 -58 -59 -58c-35 0 -59 24 -59 51v20c-36 -43 -91 -77 -172 -77zM262 77c80 0 141 46 141 113v36c-31 12 -72 21 -120 21c-78 0 -124 -33 -124 -88v-2c0 -51 45 -80 103 -80zM394 720c36 0 65 -26 65 -62v-7c0 -36 -29 -61 -65 -61c-37 0 -66 25 -66 61v7
c0 36 29 62 66 62zM195 720c36 0 65 -26 65 -62v-7c0 -36 -29 -61 -65 -61c-37 0 -66 25 -66 61v7c0 36 29 62 66 62z" />
    <glyph glyph-name="aring" unicode="&#xe5;" horiz-adv-x="587" 
d="M228 -11c-99 0 -187 57 -187 163v2c0 114 89 170 218 170c59 0 101 -9 142 -22v13c0 75 -46 115 -131 115c-46 0 -84 -8 -117 -21c-7 -2 -13 -3 -19 -3c-28 0 -51 22 -51 50c0 22 15 41 33 48c50 19 101 31 170 31c79 0 138 -21 175 -59c39 -38 57 -94 57 -163v-260
c0 -33 -26 -58 -59 -58c-35 0 -59 24 -59 51v20c-36 -43 -91 -77 -172 -77zM294 593c-60 0 -114 50 -114 109v2c0 60 54 109 114 109s114 -49 114 -109v-2c0 -59 -54 -109 -114 -109zM262 77c80 0 141 46 141 113v36c-31 12 -72 21 -120 21c-78 0 -124 -33 -124 -88v-2
c0 -51 45 -80 103 -80zM294 641c34 0 62 28 62 61v2c0 33 -28 61 -62 61s-62 -28 -62 -61v-2c0 -33 28 -61 62 -61z" />
    <glyph glyph-name="ae" unicode="&#xe6;" horiz-adv-x="952" 
d="M514 301h272c-8 78 -54 139 -134 139c-74 0 -127 -57 -138 -139zM260 78c58 0 111 25 157 68c-10 25 -17 51 -20 81c-31 11 -71 20 -116 20c-77 0 -122 -33 -122 -88v-2c0 -49 45 -79 101 -79zM855 58c-48 -43 -107 -70 -190 -70c-82 0 -156 34 -204 90
c-59 -49 -132 -89 -221 -89c-110 0 -199 59 -199 163v2c0 114 89 170 216 170c58 0 99 -9 140 -22v13c0 75 -45 115 -129 115c-45 0 -81 -8 -115 -21c-7 -2 -13 -3 -19 -3c-28 0 -51 22 -51 50c0 22 15 41 33 48c50 20 101 31 168 31c92 0 154 -30 186 -86
c42 55 107 90 185 90c165 0 248 -138 248 -260c0 -34 -25 -58 -57 -58h-330c13 -86 74 -134 151 -134c52 0 92 18 126 46c8 7 17 11 30 11c28 0 49 -21 49 -49c0 -15 -7 -28 -17 -37z" />
    <glyph glyph-name="ccedilla" unicode="&#xe7;" horiz-adv-x="571" 
d="M512 63c-43 -41 -94 -70 -170 -74l-52 -120c-8 -19 -18 -29 -39 -29c-24 0 -70 23 -70 44c0 8 3 16 8 23l61 90c-120 29 -203 137 -203 264v2c0 150 116 276 275 276c83 0 140 -27 185 -66c8 -7 19 -22 19 -42c0 -31 -25 -55 -56 -55c-15 0 -28 6 -36 12
c-31 26 -65 45 -113 45c-88 0 -153 -76 -153 -168v-2c0 -94 65 -169 158 -169c48 0 85 19 118 47c7 6 19 13 33 13c29 0 52 -24 52 -53c0 -16 -6 -29 -17 -38z" />
    <glyph glyph-name="egrave" unicode="&#xe8;" horiz-adv-x="604" 
d="M167 301h271c-8 78 -54 139 -134 139c-74 0 -126 -57 -137 -139zM508 58c-48 -43 -108 -70 -190 -70c-153 0 -271 111 -271 274v2c0 151 107 275 258 275c168 0 251 -138 251 -260c0 -34 -26 -58 -57 -58h-331c13 -86 74 -134 152 -134c51 0 91 18 125 46
c9 7 17 11 31 11c27 0 48 -21 48 -49c0 -15 -7 -28 -16 -37zM306 590c-28 0 -47 5 -70 27l-68 64c-10 9 -17 19 -17 30c0 19 40 39 72 39c21 0 37 -11 48 -29l57 -88c4 -6 9 -15 9 -22c0 -13 -13 -21 -31 -21z" />
    <glyph glyph-name="eacute" unicode="&#xe9;" horiz-adv-x="604" 
d="M300 590c-17 0 -30 8 -30 21c0 7 4 16 8 22l57 88c11 18 27 29 48 29c32 0 72 -20 72 -39c0 -11 -7 -21 -17 -30l-67 -64c-24 -22 -43 -27 -71 -27zM167 301h271c-8 78 -54 139 -134 139c-74 0 -126 -57 -137 -139zM508 58c-48 -43 -108 -70 -190 -70
c-153 0 -271 111 -271 274v2c0 151 107 275 258 275c168 0 251 -138 251 -260c0 -34 -26 -58 -57 -58h-331c13 -86 74 -134 152 -134c51 0 91 18 125 46c9 7 17 11 31 11c27 0 48 -21 48 -49c0 -15 -7 -28 -16 -37z" />
    <glyph glyph-name="ecircumflex" unicode="&#xea;" horiz-adv-x="604" 
d="M302 662l-52 -45c-26 -22 -46 -27 -74 -27c-15 0 -27 7 -27 20c0 7 6 16 12 24l66 83c15 18 30 29 58 29h36c28 0 44 -11 58 -29l66 -83c6 -8 12 -17 12 -24c0 -13 -13 -20 -29 -20c-28 0 -47 5 -74 27zM167 301h271c-8 78 -54 139 -134 139c-74 0 -126 -57 -137 -139z
M508 58c-48 -43 -108 -70 -190 -70c-153 0 -271 111 -271 274v2c0 151 107 275 258 275c168 0 251 -138 251 -260c0 -34 -26 -58 -57 -58h-331c13 -86 74 -134 152 -134c51 0 91 18 125 46c9 7 17 11 31 11c27 0 48 -21 48 -49c0 -15 -7 -28 -16 -37z" />
    <glyph glyph-name="edieresis" unicode="&#xeb;" horiz-adv-x="604" 
d="M403 720c36 0 65 -26 65 -62v-7c0 -36 -29 -61 -65 -61c-37 0 -66 25 -66 61v7c0 36 29 62 66 62zM204 720c36 0 65 -26 65 -62v-7c0 -36 -29 -61 -65 -61c-37 0 -66 25 -66 61v7c0 36 29 62 66 62zM167 301h271c-8 78 -54 139 -134 139c-74 0 -126 -57 -137 -139z
M508 58c-48 -43 -108 -70 -190 -70c-153 0 -271 111 -271 274v2c0 151 107 275 258 275c168 0 251 -138 251 -260c0 -34 -26 -58 -57 -58h-331c13 -86 74 -134 152 -134c51 0 91 18 125 46c9 7 17 11 31 11c27 0 48 -21 48 -49c0 -15 -7 -28 -16 -37z" />
    <glyph glyph-name="igrave" unicode="&#xec;" horiz-adv-x="286" 
d="M83 55v418c0 34 26 61 60 61s61 -27 61 -61v-418c0 -34 -27 -60 -61 -60c-33 0 -60 26 -60 60zM146 590c-28 0 -47 5 -70 27l-68 64c-10 9 -17 19 -17 30c0 19 40 39 72 39c21 0 37 -11 48 -29l57 -88c4 -6 9 -15 9 -22c0 -13 -13 -21 -31 -21z" />
    <glyph glyph-name="iacute" unicode="&#xed;" horiz-adv-x="286" 
d="M140 590c-17 0 -30 8 -30 21c0 7 4 16 8 22l57 88c11 18 27 29 48 29c32 0 72 -20 72 -39c0 -11 -7 -21 -17 -30l-67 -64c-24 -22 -43 -27 -71 -27zM83 55v418c0 34 26 61 60 61s61 -27 61 -61v-418c0 -34 -27 -60 -61 -60c-33 0 -60 26 -60 60z" />
    <glyph glyph-name="icircumflex" unicode="&#xee;" horiz-adv-x="286" 
d="M142 662l-52 -45c-26 -22 -46 -27 -74 -27c-15 0 -27 7 -27 20c0 7 6 16 12 24l66 83c15 18 30 29 58 29h36c28 0 44 -11 58 -29l66 -83c6 -8 12 -17 12 -24c0 -13 -13 -20 -29 -20c-28 0 -47 5 -74 27zM83 55v418c0 34 26 61 60 61s61 -27 61 -61v-418
c0 -34 -27 -60 -61 -60c-33 0 -60 26 -60 60z" />
    <glyph glyph-name="idieresis" unicode="&#xef;" horiz-adv-x="286" 
d="M243 720c36 0 65 -26 65 -62v-7c0 -36 -29 -61 -65 -61c-37 0 -66 25 -66 61v7c0 36 29 62 66 62zM44 720c36 0 65 -26 65 -62v-7c0 -36 -29 -61 -65 -61c-37 0 -66 25 -66 61v7c0 36 29 62 66 62zM83 55v418c0 34 26 61 60 61s61 -27 61 -61v-418c0 -34 -27 -60 -61 -60
c-33 0 -60 26 -60 60z" />
    <glyph glyph-name="eth" unicode="&#xf0;" horiz-adv-x="642" 
d="M418 445l-104 143l-109 -48c-5 -2 -11 -3 -17 -3c-21 0 -38 17 -38 38c0 18 11 30 27 36l91 40c-7 10 -10 20 -10 32c0 30 24 55 55 55c22 0 37 -11 48 -27l11 -16l87 38c6 2 12 4 17 4c21 0 38 -18 38 -39c0 -18 -11 -30 -26 -36l-72 -31l90 -128
c60 -87 87 -155 87 -244c0 -146 -104 -271 -277 -271c-155 0 -269 117 -269 261c0 141 101 237 232 237c57 0 96 -15 139 -41zM474 247c0 83 -64 150 -157 150c-92 0 -151 -65 -151 -151c0 -83 64 -155 155 -155c93 0 153 70 153 156z" />
    <glyph glyph-name="ntilde" unicode="&#xf1;" horiz-adv-x="620" 
d="M76 55v418c0 34 26 61 60 61s61 -27 61 -61v-26c34 49 83 92 165 92c119 0 188 -80 188 -202v-282c0 -34 -26 -60 -60 -60s-61 26 -61 60v245c0 82 -41 129 -113 129c-70 0 -119 -49 -119 -131v-243c0 -34 -27 -60 -61 -60c-33 0 -60 26 -60 60zM203 603
c-7 -11 -17 -20 -33 -20c-20 0 -37 16 -37 33c0 6 2 16 4 23c21 58 49 91 102 91c55 0 108 -40 144 -40c23 0 34 10 46 32c7 11 18 20 33 20c20 0 37 -16 37 -33c0 -6 -2 -16 -4 -23c-21 -58 -49 -91 -102 -91c-55 0 -108 40 -144 40c-23 0 -34 -10 -46 -32z" />
    <glyph glyph-name="ograve" unicode="&#xf2;" horiz-adv-x="657" 
d="M327 -12c-161 0 -280 123 -280 273v2c0 151 120 276 282 276s281 -123 281 -274v-2c0 -150 -120 -275 -283 -275zM329 94c98 0 160 76 160 167v2c0 93 -67 170 -162 170c-97 0 -159 -76 -159 -168v-2c0 -92 67 -169 161 -169zM331 590c-28 0 -47 5 -70 27l-68 64
c-10 9 -17 19 -17 30c0 19 40 39 72 39c21 0 37 -11 48 -29l57 -88c4 -6 9 -15 9 -22c0 -13 -13 -21 -31 -21z" />
    <glyph glyph-name="oacute" unicode="&#xf3;" horiz-adv-x="657" 
d="M325 590c-17 0 -30 8 -30 21c0 7 4 16 8 22l57 88c11 18 27 29 48 29c32 0 72 -20 72 -39c0 -11 -7 -21 -17 -30l-67 -64c-24 -22 -43 -27 -71 -27zM327 -12c-161 0 -280 123 -280 273v2c0 151 120 276 282 276s281 -123 281 -274v-2c0 -150 -120 -275 -283 -275zM329 94
c98 0 160 76 160 167v2c0 93 -67 170 -162 170c-97 0 -159 -76 -159 -168v-2c0 -92 67 -169 161 -169z" />
    <glyph glyph-name="ocircumflex" unicode="&#xf4;" horiz-adv-x="657" 
d="M327 662l-52 -45c-26 -22 -46 -27 -74 -27c-15 0 -27 7 -27 20c0 7 6 16 12 24l66 83c15 18 30 29 58 29h36c28 0 44 -11 58 -29l66 -83c6 -8 12 -17 12 -24c0 -13 -13 -20 -29 -20c-28 0 -47 5 -74 27zM327 -12c-161 0 -280 123 -280 273v2c0 151 120 276 282 276
s281 -123 281 -274v-2c0 -150 -120 -275 -283 -275zM329 94c98 0 160 76 160 167v2c0 93 -67 170 -162 170c-97 0 -159 -76 -159 -168v-2c0 -92 67 -169 161 -169z" />
    <glyph glyph-name="otilde" unicode="&#xf5;" horiz-adv-x="657" 
d="M327 -12c-161 0 -280 123 -280 273v2c0 151 120 276 282 276s281 -123 281 -274v-2c0 -150 -120 -275 -283 -275zM329 94c98 0 160 76 160 167v2c0 93 -67 170 -162 170c-97 0 -159 -76 -159 -168v-2c0 -92 67 -169 161 -169zM219 603c-7 -11 -17 -20 -33 -20
c-20 0 -37 16 -37 33c0 6 2 16 4 23c21 58 49 91 102 91c55 0 108 -40 144 -40c23 0 34 10 46 32c7 11 18 20 33 20c20 0 37 -16 37 -33c0 -6 -2 -16 -4 -23c-21 -58 -49 -91 -102 -91c-55 0 -108 40 -144 40c-23 0 -34 -10 -46 -32z" />
    <glyph glyph-name="odieresis" unicode="&#xf6;" horiz-adv-x="657" 
d="M428 720c36 0 65 -26 65 -62v-7c0 -36 -29 -61 -65 -61c-37 0 -66 25 -66 61v7c0 36 29 62 66 62zM229 720c36 0 65 -26 65 -62v-7c0 -36 -29 -61 -65 -61c-37 0 -66 25 -66 61v7c0 36 29 62 66 62zM327 -12c-161 0 -280 123 -280 273v2c0 151 120 276 282 276
s281 -123 281 -274v-2c0 -150 -120 -275 -283 -275zM329 94c98 0 160 76 160 167v2c0 93 -67 170 -162 170c-97 0 -159 -76 -159 -168v-2c0 -92 67 -169 161 -169z" />
    <glyph glyph-name="divide" unicode="&#xf7;" horiz-adv-x="634" 
d="M519 300h-404c-29 0 -52 24 -52 52s23 52 52 52h404c29 0 52 -24 52 -52s-23 -52 -52 -52zM317 629c38 0 69 -30 69 -66v-5c0 -37 -31 -67 -69 -67s-69 30 -69 67v5c0 36 31 66 69 66zM317 213c38 0 69 -30 69 -67v-5c0 -37 -31 -66 -69 -66s-69 29 -69 66v5
c0 37 31 67 69 67z" />
    <glyph glyph-name="oslash" unicode="&#xf8;" horiz-adv-x="657" 
d="M327 -12c-62 0 -117 18 -162 48l-29 -30c-11 -11 -23 -18 -38 -18c-21 0 -39 17 -39 37c0 16 8 28 17 37l29 30c-37 46 -58 105 -58 169v2c0 151 120 276 282 276c61 0 117 -18 162 -49l30 31c11 11 23 18 38 18c21 0 39 -16 39 -36c0 -16 -8 -28 -17 -38l-30 -30
c37 -47 59 -106 59 -170v-2c0 -150 -120 -275 -283 -275zM165 263c0 -32 8 -62 22 -88l229 234c-25 17 -56 27 -89 27c-99 0 -162 -78 -162 -171v-2zM329 91c100 0 163 78 163 170v2c0 32 -8 62 -23 88l-229 -234c25 -17 55 -26 89 -26z" />
    <glyph glyph-name="ugrave" unicode="&#xf9;" horiz-adv-x="620" 
d="M545 473v-418c0 -33 -27 -60 -61 -60c-33 0 -61 26 -61 60v27c-34 -50 -83 -93 -165 -93c-119 0 -188 80 -188 203v281c0 34 27 61 60 61c34 0 61 -27 61 -61v-245c0 -82 41 -128 113 -128c70 0 119 48 119 130v243c0 34 27 61 61 61c33 0 61 -27 61 -61zM309 590
c-28 0 -47 5 -70 27l-68 64c-10 9 -17 19 -17 30c0 19 40 39 72 39c21 0 37 -11 48 -29l57 -88c4 -6 9 -15 9 -22c0 -13 -13 -21 -31 -21z" />
    <glyph glyph-name="uacute" unicode="&#xfa;" horiz-adv-x="620" 
d="M303 590c-17 0 -30 8 -30 21c0 7 4 16 8 22l57 88c11 18 27 29 48 29c32 0 72 -20 72 -39c0 -11 -7 -21 -17 -30l-67 -64c-24 -22 -43 -27 -71 -27zM545 473v-418c0 -33 -27 -60 -61 -60c-33 0 -61 26 -61 60v27c-34 -50 -83 -93 -165 -93c-119 0 -188 80 -188 203v281
c0 34 27 61 60 61c34 0 61 -27 61 -61v-245c0 -82 41 -128 113 -128c70 0 119 48 119 130v243c0 34 27 61 61 61c33 0 61 -27 61 -61z" />
    <glyph glyph-name="ucircumflex" unicode="&#xfb;" horiz-adv-x="620" 
d="M305 662l-52 -45c-26 -22 -46 -27 -74 -27c-15 0 -27 7 -27 20c0 7 6 16 12 24l66 83c15 18 30 29 58 29h36c28 0 44 -11 58 -29l66 -83c6 -8 12 -17 12 -24c0 -13 -13 -20 -29 -20c-28 0 -47 5 -74 27zM545 473v-418c0 -33 -27 -60 -61 -60c-33 0 -61 26 -61 60v27
c-34 -50 -83 -93 -165 -93c-119 0 -188 80 -188 203v281c0 34 27 61 60 61c34 0 61 -27 61 -61v-245c0 -82 41 -128 113 -128c70 0 119 48 119 130v243c0 34 27 61 61 61c33 0 61 -27 61 -61z" />
    <glyph glyph-name="udieresis" unicode="&#xfc;" horiz-adv-x="620" 
d="M406 720c36 0 65 -26 65 -62v-7c0 -36 -29 -61 -65 -61c-37 0 -66 25 -66 61v7c0 36 29 62 66 62zM207 720c36 0 65 -26 65 -62v-7c0 -36 -29 -61 -65 -61c-37 0 -66 25 -66 61v7c0 36 29 62 66 62zM545 473v-418c0 -33 -27 -60 -61 -60c-33 0 -61 26 -61 60v27
c-34 -50 -83 -93 -165 -93c-119 0 -188 80 -188 203v281c0 34 27 61 60 61c34 0 61 -27 61 -61v-245c0 -82 41 -128 113 -128c70 0 119 48 119 130v243c0 34 27 61 61 61c33 0 61 -27 61 -61z" />
    <glyph glyph-name="yacute" unicode="&#xfd;" horiz-adv-x="587" 
d="M172 -163c-34 0 -59 5 -84 15c-18 6 -38 21 -38 50c0 30 23 50 49 50c10 0 16 -2 22 -4c14 -4 25 -7 42 -7c36 0 55 15 75 56l4 11l-196 438c-4 9 -7 21 -7 29c0 34 26 59 60 59c31 0 48 -18 59 -46l142 -351l132 351c10 25 27 46 58 46c32 0 58 -25 58 -57
c0 -10 -3 -23 -5 -29l-193 -463c-45 -108 -93 -148 -178 -148zM291 590c-17 0 -30 8 -30 21c0 7 4 16 8 22l57 88c11 18 27 29 48 29c32 0 72 -20 72 -39c0 -11 -7 -21 -17 -30l-67 -64c-24 -22 -43 -27 -71 -27z" />
    <glyph glyph-name="thorn" unicode="&#xfe;" 
d="M76 -105v780c0 34 26 60 60 60s61 -26 61 -60v-235c39 55 94 99 180 99c124 0 245 -98 245 -274v-2c0 -175 -120 -274 -245 -274c-88 0 -143 44 -180 93v-187c0 -34 -27 -60 -61 -60c-33 0 -60 26 -60 60zM348 94c83 0 151 65 151 169v2c0 102 -69 169 -151 169
s-154 -68 -154 -169v-2c0 -101 72 -169 154 -169z" />
    <glyph glyph-name="ydieresis" unicode="&#xff;" horiz-adv-x="587" 
d="M172 -163c-34 0 -59 5 -84 15c-18 6 -38 21 -38 50c0 30 23 50 49 50c10 0 16 -2 22 -4c14 -4 25 -7 42 -7c36 0 55 15 75 56l4 11l-196 438c-4 9 -7 21 -7 29c0 34 26 59 60 59c31 0 48 -18 59 -46l142 -351l132 351c10 25 27 46 58 46c32 0 58 -25 58 -57
c0 -10 -3 -23 -5 -29l-193 -463c-45 -108 -93 -148 -178 -148zM394 720c36 0 65 -26 65 -62v-7c0 -36 -29 -61 -65 -61c-37 0 -66 25 -66 61v7c0 36 29 62 66 62zM195 720c36 0 65 -26 65 -62v-7c0 -36 -29 -61 -65 -61c-37 0 -66 25 -66 61v7c0 36 29 62 66 62z" />
    <glyph glyph-name="Amacron" unicode="&#x100;" horiz-adv-x="773" 
d="M42 52c0 9 3 18 8 28l260 580c14 31 39 50 74 50h6c35 0 59 -19 73 -50l260 -580c5 -9 7 -18 7 -26c0 -33 -25 -59 -58 -59c-29 0 -49 17 -60 43l-57 131h-340l-59 -135c-10 -25 -31 -39 -57 -39c-32 0 -57 25 -57 57zM262 278h246l-123 283zM518 779h-266
c-24 0 -44 20 -44 44s20 44 44 44h266c24 0 44 -20 44 -44s-20 -44 -44 -44z" />
    <glyph glyph-name="amacron" unicode="&#x101;" horiz-adv-x="587" 
d="M228 -11c-99 0 -187 57 -187 163v2c0 114 89 170 218 170c59 0 101 -9 142 -22v13c0 75 -46 115 -131 115c-46 0 -84 -8 -117 -21c-7 -2 -13 -3 -19 -3c-28 0 -51 22 -51 50c0 22 15 41 33 48c50 19 101 31 170 31c79 0 138 -21 175 -59c39 -38 57 -94 57 -163v-260
c0 -33 -26 -58 -59 -58c-35 0 -59 24 -59 51v20c-36 -43 -91 -77 -172 -77zM262 77c80 0 141 46 141 113v36c-31 12 -72 21 -120 21c-78 0 -124 -33 -124 -88v-2c0 -51 45 -80 103 -80zM427 606h-266c-24 0 -44 20 -44 44s20 44 44 44h266c24 0 44 -20 44 -44
s-20 -44 -44 -44z" />
    <glyph glyph-name="Abreve" unicode="&#x102;" horiz-adv-x="773" 
d="M42 52c0 9 3 18 8 28l260 580c14 31 39 50 74 50h6c35 0 59 -19 73 -50l260 -580c5 -9 7 -18 7 -26c0 -33 -25 -59 -58 -59c-29 0 -49 17 -60 43l-57 131h-340l-59 -135c-10 -25 -31 -39 -57 -39c-32 0 -57 25 -57 57zM262 278h246l-123 283zM385 766
c-70 0 -124 29 -153 80c-5 10 -8 21 -8 31c0 24 18 43 42 43c21 0 31 -11 38 -23c15 -27 38 -46 81 -46s67 19 81 46c7 12 17 23 38 23c24 0 42 -19 42 -43c0 -10 -3 -21 -8 -31c-29 -51 -82 -80 -153 -80z" />
    <glyph glyph-name="abreve" unicode="&#x103;" horiz-adv-x="587" 
d="M228 -11c-99 0 -187 57 -187 163v2c0 114 89 170 218 170c59 0 101 -9 142 -22v13c0 75 -46 115 -131 115c-46 0 -84 -8 -117 -21c-7 -2 -13 -3 -19 -3c-28 0 -51 22 -51 50c0 22 15 41 33 48c50 19 101 31 170 31c79 0 138 -21 175 -59c39 -38 57 -94 57 -163v-260
c0 -33 -26 -58 -59 -58c-35 0 -59 24 -59 51v20c-36 -43 -91 -77 -172 -77zM262 77c80 0 141 46 141 113v36c-31 12 -72 21 -120 21c-78 0 -124 -33 -124 -88v-2c0 -51 45 -80 103 -80zM294 593c-70 0 -124 29 -153 80c-5 10 -8 21 -8 31c0 24 18 43 42 43
c21 0 31 -11 38 -23c15 -27 38 -46 81 -46s67 19 81 46c7 12 17 23 38 23c24 0 42 -19 42 -43c0 -10 -3 -21 -8 -31c-29 -51 -82 -80 -153 -80z" />
    <glyph glyph-name="Aogonek" unicode="&#x104;" horiz-adv-x="790" 
d="M50 52c0 9 4 18 8 28l260 580c14 31 39 50 74 50h7c35 0 59 -19 73 -50l261 -582c4 -9 7 -18 7 -26c0 -19 -7 -31 -23 -48c-28 -27 -38 -47 -38 -67c0 -24 16 -34 44 -41c22 -5 33 -15 33 -31c0 -19 -14 -31 -40 -31c-64 0 -128 24 -128 84c0 33 17 60 46 90l-71 161
h-340l-58 -135c-11 -25 -32 -39 -58 -39c-32 0 -57 25 -57 57zM270 278h246l-123 283z" />
    <glyph glyph-name="aogonek" unicode="&#x105;" horiz-adv-x="587" 
d="M362 -85c0 33 17 62 53 96c-10 9 -15 43 -15 54v1c-36 -43 -91 -77 -172 -77c-99 0 -187 57 -187 163v2c0 114 89 170 218 170c59 0 101 -9 142 -22v13c0 75 -46 115 -131 115c-46 0 -84 -8 -117 -21c-7 -2 -13 -3 -19 -3c-28 0 -51 22 -51 50c0 22 15 41 33 48
c50 19 101 31 170 31c79 0 138 -21 175 -59c39 -38 57 -94 57 -163v-261c0 -20 -7 -32 -24 -48c-29 -28 -40 -47 -40 -68c0 -23 15 -33 43 -40c22 -5 33 -15 33 -31c0 -19 -14 -31 -40 -31c-64 0 -128 24 -128 81zM262 77c80 0 141 46 141 113v36c-31 12 -72 21 -120 21
c-78 0 -124 -33 -124 -88v-2c0 -51 45 -80 103 -80z" />
    <glyph glyph-name="Cacute" unicode="&#x106;" horiz-adv-x="738" 
d="M405 763c-17 0 -30 8 -30 21c0 7 4 16 8 22l57 88c11 18 27 29 48 29c32 0 72 -20 72 -39c0 -11 -7 -21 -17 -30l-67 -64c-24 -22 -43 -27 -71 -27zM415 -12c-204 0 -356 159 -356 360v2c0 199 149 362 361 362c108 0 179 -32 240 -79c13 -10 24 -27 24 -49
c0 -34 -27 -60 -61 -60c-17 0 -29 6 -37 12c-48 39 -100 63 -167 63c-133 0 -231 -110 -231 -247v-2c0 -137 97 -248 231 -248c74 0 124 24 175 67c9 8 22 14 37 14c31 0 58 -26 58 -57c0 -19 -9 -34 -20 -44c-66 -58 -141 -94 -254 -94z" />
    <glyph glyph-name="cacute" unicode="&#x107;" horiz-adv-x="571" 
d="M312 590c-17 0 -30 8 -30 21c0 7 4 16 8 22l57 88c11 18 27 29 48 29c32 0 72 -20 72 -39c0 -11 -7 -21 -17 -30l-67 -64c-24 -22 -43 -27 -71 -27zM320 -12c-157 0 -273 123 -273 273v2c0 150 116 276 275 276c83 0 140 -27 185 -66c8 -7 19 -22 19 -42
c0 -31 -25 -55 -56 -55c-15 0 -28 6 -36 12c-31 26 -65 45 -113 45c-88 0 -153 -76 -153 -168v-2c0 -94 65 -169 158 -169c48 0 85 19 118 47c7 6 19 13 33 13c29 0 52 -24 52 -53c0 -16 -6 -29 -17 -38c-47 -45 -104 -75 -192 -75z" />
    <glyph glyph-name="Cdotaccent" unicode="&#x10a;" horiz-adv-x="738" 
d="M415 -12c-204 0 -356 159 -356 360v2c0 199 149 362 361 362c108 0 179 -32 240 -79c13 -10 24 -27 24 -49c0 -34 -27 -60 -61 -60c-17 0 -29 6 -37 12c-48 39 -100 63 -167 63c-133 0 -231 -110 -231 -247v-2c0 -137 97 -248 231 -248c74 0 124 24 175 67
c9 8 22 14 37 14c31 0 58 -26 58 -57c0 -19 -9 -34 -20 -44c-66 -58 -141 -94 -254 -94zM476 831v-7c0 -37 -31 -61 -68 -61s-67 24 -67 61v7c0 37 30 62 67 62s68 -25 68 -62z" />
    <glyph glyph-name="cdotaccent" unicode="&#x10b;" horiz-adv-x="571" 
d="M320 -12c-157 0 -273 123 -273 273v2c0 150 116 276 275 276c83 0 140 -27 185 -66c8 -7 19 -22 19 -42c0 -31 -25 -55 -56 -55c-15 0 -28 6 -36 12c-31 26 -65 45 -113 45c-88 0 -153 -76 -153 -168v-2c0 -94 65 -169 158 -169c48 0 85 19 118 47c7 6 19 13 33 13
c29 0 52 -24 52 -53c0 -16 -6 -29 -17 -38c-47 -45 -104 -75 -192 -75zM383 658v-7c0 -37 -31 -61 -68 -61s-67 24 -67 61v7c0 37 30 62 67 62s68 -25 68 -62z" />
    <glyph glyph-name="Ccaron" unicode="&#x10c;" horiz-adv-x="738" 
d="M409 848l52 45c27 22 46 27 74 27c16 0 27 -7 27 -20c0 -8 -6 -16 -12 -24l-66 -83c-14 -18 -30 -29 -58 -29h-36c-28 0 -43 11 -58 29l-66 83c-6 8 -12 16 -12 24c0 13 13 20 29 20c28 0 48 -5 74 -27zM415 -12c-204 0 -356 159 -356 360v2c0 199 149 362 361 362
c108 0 179 -32 240 -79c13 -10 24 -27 24 -49c0 -34 -27 -60 -61 -60c-17 0 -29 6 -37 12c-48 39 -100 63 -167 63c-133 0 -231 -110 -231 -247v-2c0 -137 97 -248 231 -248c74 0 124 24 175 67c9 8 22 14 37 14c31 0 58 -26 58 -57c0 -19 -9 -34 -20 -44
c-66 -58 -141 -94 -254 -94z" />
    <glyph glyph-name="ccaron" unicode="&#x10d;" horiz-adv-x="571" 
d="M316 675l52 45c27 22 46 27 74 27c16 0 27 -7 27 -20c0 -8 -6 -16 -12 -24l-66 -83c-14 -18 -30 -29 -58 -29h-36c-28 0 -43 11 -58 29l-66 83c-6 8 -12 16 -12 24c0 13 13 20 29 20c28 0 48 -5 74 -27zM320 -12c-157 0 -273 123 -273 273v2c0 150 116 276 275 276
c83 0 140 -27 185 -66c8 -7 19 -22 19 -42c0 -31 -25 -55 -56 -55c-15 0 -28 6 -36 12c-31 26 -65 45 -113 45c-88 0 -153 -76 -153 -168v-2c0 -94 65 -169 158 -169c48 0 85 19 118 47c7 6 19 13 33 13c29 0 52 -24 52 -53c0 -16 -6 -29 -17 -38c-47 -45 -104 -75 -192 -75
z" />
    <glyph glyph-name="Dcaron" unicode="&#x10e;" horiz-adv-x="782" 
d="M378 838l52 45c27 22 46 27 74 27c16 0 27 -7 27 -20c0 -8 -6 -16 -12 -24l-66 -83c-14 -18 -30 -29 -58 -29h-36c-28 0 -43 11 -58 29l-66 83c-6 8 -12 16 -12 24c0 13 13 20 29 20c28 0 48 -5 74 -27zM90 62v576c0 35 27 62 62 62h199c220 0 372 -151 372 -348v-2
c0 -197 -152 -350 -372 -350h-199c-35 0 -62 27 -62 62zM213 112h138c147 0 243 99 243 236v2c0 137 -96 238 -243 238h-138v-476z" />
    <glyph glyph-name="dcaron" unicode="&#x10f;" 
d="M651 567l3 124c1 25 18 44 44 44h18c18 0 31 -10 31 -29c0 -6 -1 -14 -4 -23l-37 -121c-5 -16 -13 -25 -29 -25s-27 11 -26 30zM595 675v-620c0 -34 -27 -60 -60 -60c-34 0 -61 26 -61 60v33c-39 -55 -94 -99 -180 -99c-124 0 -245 99 -245 274v2c0 175 119 274 245 274
c87 0 142 -43 180 -93v229c0 34 27 60 60 60c34 0 61 -26 61 -60zM323 434c-83 0 -152 -64 -152 -169v-2c0 -102 70 -169 152 -169c81 0 153 68 153 169v2c0 102 -72 169 -153 169z" />
    <glyph glyph-name="Dcroat" unicode="&#x110;" horiz-adv-x="812" 
d="M94 407h26v231c0 35 27 62 62 62h199c220 0 372 -151 372 -348v-2c0 -197 -152 -350 -372 -350h-199c-35 0 -62 27 -62 62v235h-26c-30 0 -54 25 -54 55c0 31 24 55 54 55zM242 588v-181h127c30 0 54 -24 54 -55c0 -30 -24 -55 -54 -55h-127v-185h139
c147 0 243 99 243 236v2c0 137 -96 238 -243 238h-139z" />
    <glyph glyph-name="dcroat" unicode="&#x111;" 
d="M595 675v-1h38c20 0 36 -17 36 -36c0 -20 -16 -36 -36 -36h-38v-547c0 -34 -27 -60 -60 -60c-34 0 -61 26 -61 60v33c-39 -55 -94 -99 -180 -99c-124 0 -245 99 -245 274v2c0 175 119 274 245 274c87 0 142 -43 180 -93v156h-133c-20 0 -36 16 -36 36c0 19 16 36 36 36
h133v1c0 34 27 60 60 60c34 0 61 -26 61 -60zM323 434c-83 0 -152 -64 -152 -169v-2c0 -102 70 -169 152 -169c81 0 153 68 153 169v2c0 102 -72 169 -153 169z" />
    <glyph glyph-name="Emacron" unicode="&#x112;" horiz-adv-x="670" 
d="M152 0c-35 0 -62 27 -62 62v576c0 35 27 62 62 62h407c30 0 55 -25 55 -55c0 -31 -25 -55 -55 -55h-346v-182h301c30 0 55 -25 55 -56c0 -30 -25 -54 -55 -54h-301v-188h351c30 0 55 -25 55 -55c0 -31 -25 -55 -55 -55h-412zM484 769h-266c-24 0 -44 20 -44 44
s20 44 44 44h266c24 0 44 -20 44 -44s-20 -44 -44 -44z" />
    <glyph glyph-name="emacron" unicode="&#x113;" horiz-adv-x="604" 
d="M167 301h271c-8 78 -54 139 -134 139c-74 0 -126 -57 -137 -139zM508 58c-48 -43 -108 -70 -190 -70c-153 0 -271 111 -271 274v2c0 151 107 275 258 275c168 0 251 -138 251 -260c0 -34 -26 -58 -57 -58h-331c13 -86 74 -134 152 -134c51 0 91 18 125 46
c9 7 17 11 31 11c27 0 48 -21 48 -49c0 -15 -7 -28 -16 -37zM436 606h-266c-24 0 -44 20 -44 44s20 44 44 44h266c24 0 44 -20 44 -44s-20 -44 -44 -44z" />
    <glyph glyph-name="Ebreve" unicode="&#x114;" horiz-adv-x="670" 
d="M152 0c-35 0 -62 27 -62 62v576c0 35 27 62 62 62h407c30 0 55 -25 55 -55c0 -31 -25 -55 -55 -55h-346v-182h301c30 0 55 -25 55 -56c0 -30 -25 -54 -55 -54h-301v-188h351c30 0 55 -25 55 -55c0 -31 -25 -55 -55 -55h-412zM351 756c-70 0 -124 29 -153 80
c-5 10 -8 21 -8 31c0 24 18 43 42 43c21 0 31 -11 38 -23c15 -27 38 -46 81 -46s67 19 81 46c7 12 17 23 38 23c24 0 42 -19 42 -43c0 -10 -3 -21 -8 -31c-29 -51 -82 -80 -153 -80z" />
    <glyph glyph-name="ebreve" unicode="&#x115;" horiz-adv-x="604" 
d="M167 301h271c-8 78 -54 139 -134 139c-74 0 -126 -57 -137 -139zM508 58c-48 -43 -108 -70 -190 -70c-153 0 -271 111 -271 274v2c0 151 107 275 258 275c168 0 251 -138 251 -260c0 -34 -26 -58 -57 -58h-331c13 -86 74 -134 152 -134c51 0 91 18 125 46
c9 7 17 11 31 11c27 0 48 -21 48 -49c0 -15 -7 -28 -16 -37zM303 593c-70 0 -124 29 -153 80c-5 10 -8 21 -8 31c0 24 18 43 42 43c21 0 31 -11 38 -23c15 -27 38 -46 81 -46s67 19 81 46c7 12 17 23 38 23c24 0 42 -19 42 -43c0 -10 -3 -21 -8 -31
c-29 -51 -82 -80 -153 -80z" />
    <glyph glyph-name="Edotaccent" unicode="&#x116;" horiz-adv-x="670" 
d="M152 0c-35 0 -62 27 -62 62v576c0 35 27 62 62 62h407c30 0 55 -25 55 -55c0 -31 -25 -55 -55 -55h-346v-182h301c30 0 55 -25 55 -56c0 -30 -25 -54 -55 -54h-301v-188h351c30 0 55 -25 55 -55c0 -31 -25 -55 -55 -55h-412zM419 821v-7c0 -37 -31 -61 -68 -61
s-67 24 -67 61v7c0 37 30 62 67 62s68 -25 68 -62z" />
    <glyph glyph-name="edotaccent" unicode="&#x117;" horiz-adv-x="604" 
d="M167 301h271c-8 78 -54 139 -134 139c-74 0 -126 -57 -137 -139zM508 58c-48 -43 -108 -70 -190 -70c-153 0 -271 111 -271 274v2c0 151 107 275 258 275c168 0 251 -138 251 -260c0 -34 -26 -58 -57 -58h-331c13 -86 74 -134 152 -134c51 0 91 18 125 46
c9 7 17 11 31 11c27 0 48 -21 48 -49c0 -15 -7 -28 -16 -37zM371 658v-7c0 -37 -31 -61 -68 -61s-67 24 -67 61v7c0 37 30 62 67 62s68 -25 68 -62z" />
    <glyph glyph-name="Eogonek" unicode="&#x118;" horiz-adv-x="670" 
d="M152 0c-35 0 -62 27 -62 62v576c0 35 27 62 62 62h407c30 0 55 -25 55 -55c0 -31 -25 -55 -55 -55h-346v-182h301c30 0 55 -25 55 -56c0 -30 -25 -54 -55 -54h-301v-188h350c32 0 56 -24 56 -51c0 -26 -11 -37 -31 -56c-29 -25 -42 -43 -42 -66c0 -24 16 -34 43 -41
c23 -5 34 -15 34 -31c0 -19 -14 -31 -40 -31c-64 0 -129 23 -129 84c0 30 16 55 41 82h-343z" />
    <glyph glyph-name="eogonek" unicode="&#x119;" horiz-adv-x="604" 
d="M556 279c0 -34 -26 -58 -57 -58h-331c13 -86 74 -134 152 -134c51 0 91 18 125 46c9 7 17 11 31 11c27 0 48 -21 48 -49c0 -15 -7 -27 -16 -37c-20 -19 -26 -23 -43 -40c-35 -33 -44 -53 -44 -76c0 -29 16 -39 44 -46c22 -5 33 -15 33 -31c0 -19 -13 -31 -39 -31
c-72 0 -129 27 -129 86c0 24 12 47 34 72c-15 -2 -30 -4 -46 -4c-153 0 -271 111 -271 274v2c0 151 107 275 258 275c168 0 251 -138 251 -260zM167 301h271c-8 78 -54 139 -134 139c-74 0 -126 -57 -137 -139z" />
    <glyph glyph-name="Ecaron" unicode="&#x11a;" horiz-adv-x="670" 
d="M352 838l52 45c27 22 46 27 74 27c16 0 27 -7 27 -20c0 -8 -6 -16 -12 -24l-66 -83c-14 -18 -30 -29 -58 -29h-36c-28 0 -43 11 -58 29l-66 83c-6 8 -12 16 -12 24c0 13 13 20 29 20c28 0 48 -5 74 -27zM152 0c-35 0 -62 27 -62 62v576c0 35 27 62 62 62h407
c30 0 55 -25 55 -55c0 -31 -25 -55 -55 -55h-346v-182h301c30 0 55 -25 55 -56c0 -30 -25 -54 -55 -54h-301v-188h351c30 0 55 -25 55 -55c0 -31 -25 -55 -55 -55h-412z" />
    <glyph glyph-name="ecaron" unicode="&#x11b;" horiz-adv-x="604" 
d="M304 675l52 45c27 22 46 27 74 27c16 0 27 -7 27 -20c0 -8 -6 -16 -12 -24l-66 -83c-14 -18 -30 -29 -58 -29h-36c-28 0 -43 11 -58 29l-66 83c-6 8 -12 16 -12 24c0 13 13 20 29 20c28 0 48 -5 74 -27zM167 301h271c-8 78 -54 139 -134 139c-74 0 -126 -57 -137 -139z
M508 58c-48 -43 -108 -70 -190 -70c-153 0 -271 111 -271 274v2c0 151 107 275 258 275c168 0 251 -138 251 -260c0 -34 -26 -58 -57 -58h-331c13 -86 74 -134 152 -134c51 0 91 18 125 46c9 7 17 11 31 11c27 0 48 -21 48 -49c0 -15 -7 -28 -16 -37z" />
    <glyph glyph-name="Gbreve" unicode="&#x11e;" horiz-adv-x="784" 
d="M422 -12c-219 0 -363 156 -363 360v2c0 196 150 362 361 362c105 0 175 -25 239 -71c12 -9 25 -26 25 -50c0 -33 -27 -61 -61 -61c-16 0 -28 7 -38 14c-45 33 -94 55 -170 55c-129 0 -227 -113 -227 -247v-2c0 -144 95 -250 238 -250c66 0 126 21 169 53v131h-138
c-30 0 -55 23 -55 53s25 54 55 54h195c35 0 62 -27 62 -62v-187c0 -35 -14 -60 -43 -78c-60 -40 -144 -76 -249 -76zM412 766c-70 0 -124 29 -153 80c-5 10 -8 21 -8 31c0 24 18 43 42 43c21 0 31 -11 38 -23c15 -27 38 -46 81 -46s67 19 81 46c7 12 17 23 38 23
c24 0 42 -19 42 -43c0 -10 -3 -21 -8 -31c-29 -51 -82 -80 -153 -80z" />
    <glyph glyph-name="gbreve" unicode="&#x11f;" 
d="M311 -162c-74 0 -140 16 -204 47c-21 8 -34 25 -34 48c0 27 23 50 51 50c9 0 16 -2 22 -5c48 -27 101 -42 162 -42c108 0 167 56 167 162v41c-44 -57 -99 -97 -186 -97c-124 0 -240 92 -240 247v2c0 156 117 248 240 248c89 0 144 -41 185 -90v25c0 33 27 60 60 60
c34 0 61 -27 61 -61v-365c0 -89 -23 -155 -67 -199c-48 -48 -122 -71 -217 -71zM321 145c84 0 155 59 155 145v2c0 86 -71 145 -155 145s-150 -58 -150 -145v-2c0 -86 67 -145 150 -145zM326 593c-70 0 -124 29 -153 80c-5 10 -8 21 -8 31c0 24 18 43 42 43
c21 0 31 -11 38 -23c15 -27 38 -46 81 -46s67 19 81 46c7 12 17 23 38 23c24 0 42 -19 42 -43c0 -10 -3 -21 -8 -31c-29 -51 -82 -80 -153 -80z" />
    <glyph glyph-name="Gdotaccent" unicode="&#x120;" horiz-adv-x="784" 
d="M422 -12c-219 0 -363 156 -363 360v2c0 196 150 362 361 362c105 0 175 -25 239 -71c12 -9 25 -26 25 -50c0 -33 -27 -61 -61 -61c-16 0 -28 7 -38 14c-45 33 -94 55 -170 55c-129 0 -227 -113 -227 -247v-2c0 -144 95 -250 238 -250c66 0 126 21 169 53v131h-138
c-30 0 -55 23 -55 53s25 54 55 54h195c35 0 62 -27 62 -62v-187c0 -35 -14 -60 -43 -78c-60 -40 -144 -76 -249 -76zM480 831v-7c0 -37 -31 -61 -68 -61s-67 24 -67 61v7c0 37 30 62 67 62s68 -25 68 -62z" />
    <glyph glyph-name="gdotaccent" unicode="&#x121;" 
d="M311 -162c-74 0 -140 16 -204 47c-21 8 -34 25 -34 48c0 27 23 50 51 50c9 0 16 -2 22 -5c48 -27 101 -42 162 -42c108 0 167 56 167 162v41c-44 -57 -99 -97 -186 -97c-124 0 -240 92 -240 247v2c0 156 117 248 240 248c89 0 144 -41 185 -90v25c0 33 27 60 60 60
c34 0 61 -27 61 -61v-365c0 -89 -23 -155 -67 -199c-48 -48 -122 -71 -217 -71zM321 145c84 0 155 59 155 145v2c0 86 -71 145 -155 145s-150 -58 -150 -145v-2c0 -86 67 -145 150 -145zM394 658v-7c0 -37 -31 -61 -68 -61s-67 24 -67 61v7c0 37 30 62 67 62s68 -25 68 -62z
" />
    <glyph glyph-name="Gcommaaccent" unicode="&#x122;" horiz-adv-x="784" 
d="M403 -169c-30 5 -54 22 -54 53v2c0 31 25 53 61 53c39 0 64 -28 64 -70v-3c0 -50 -14 -83 -43 -108c-22 -20 -58 -33 -86 -33c-18 0 -26 10 -26 21s7 18 21 21c45 10 64 31 63 64zM422 -12c-219 0 -363 156 -363 360v2c0 196 150 362 361 362c105 0 175 -25 239 -71
c12 -9 25 -26 25 -50c0 -33 -27 -61 -61 -61c-16 0 -28 7 -38 14c-45 33 -94 55 -170 55c-129 0 -227 -113 -227 -247v-2c0 -144 95 -250 238 -250c66 0 126 21 169 53v131h-138c-30 0 -55 23 -55 53s25 54 55 54h195c35 0 62 -27 62 -62v-187c0 -35 -14 -60 -43 -78
c-60 -40 -144 -76 -249 -76z" />
    <glyph glyph-name="gcommaaccent" unicode="&#x123;" 
d="M333 697c30 -5 54 -22 54 -53v-2c0 -31 -25 -53 -61 -53c-39 0 -64 28 -64 70v3c0 50 14 83 43 108c22 20 58 33 86 33c18 0 26 -10 26 -21s-7 -18 -21 -21c-45 -10 -64 -31 -63 -64zM311 -162c-74 0 -140 16 -204 47c-21 8 -34 25 -34 48c0 27 23 50 51 50
c9 0 16 -2 22 -5c48 -27 101 -42 162 -42c108 0 167 56 167 162v41c-44 -57 -99 -97 -186 -97c-124 0 -240 92 -240 247v2c0 156 117 248 240 248c89 0 144 -41 185 -90v25c0 33 27 60 60 60c34 0 61 -27 61 -61v-365c0 -89 -23 -155 -67 -199c-48 -48 -122 -71 -217 -71z
M321 145c84 0 155 59 155 145v2c0 86 -71 145 -155 145s-150 -58 -150 -145v-2c0 -86 67 -145 150 -145z" />
    <glyph glyph-name="Hbar" unicode="&#x126;" horiz-adv-x="778" 
d="M99 56v455h-33c-24 0 -44 20 -44 43c0 24 20 44 44 44h33v46c0 34 27 61 62 61c34 0 61 -27 61 -61v-46h334v46c0 34 27 61 61 61c35 0 62 -27 62 -61v-46h32c24 0 44 -20 44 -44c0 -23 -20 -43 -44 -43h-32v-455c0 -34 -27 -61 -62 -61c-34 0 -61 27 -61 61v239h-334
v-239c0 -34 -27 -61 -61 -61c-35 0 -62 27 -62 61zM222 409h334v102h-334v-102z" />
    <glyph glyph-name="hbar" unicode="&#x127;" horiz-adv-x="620" 
d="M76 55v547h-38c-20 0 -36 16 -36 36c0 19 16 36 36 36h38v1c0 33 26 60 60 60s61 -27 61 -60v-1h133c20 0 36 -17 36 -36c0 -20 -16 -36 -36 -36h-133v-155c34 49 83 92 165 92c119 0 188 -80 188 -202v-282c0 -34 -26 -60 -60 -60s-61 26 -61 60v245
c0 82 -41 129 -113 129c-70 0 -119 -49 -119 -131v-243c0 -34 -27 -60 -61 -60c-33 0 -60 26 -60 60z" />
    <glyph glyph-name="Imacron" unicode="&#x12a;" horiz-adv-x="317" 
d="M97 56v588c0 34 27 61 62 61c34 0 61 -27 61 -61v-588c0 -34 -27 -61 -61 -61c-35 0 -62 27 -62 61zM292 769h-266c-24 0 -44 20 -44 44s20 44 44 44h266c24 0 44 -20 44 -44s-20 -44 -44 -44z" />
    <glyph glyph-name="imacron" unicode="&#x12b;" horiz-adv-x="286" 
d="M83 55v418c0 34 26 61 60 61s61 -27 61 -61v-418c0 -34 -27 -60 -61 -60c-33 0 -60 26 -60 60zM276 606h-266c-24 0 -44 20 -44 44s20 44 44 44h266c24 0 44 -20 44 -44s-20 -44 -44 -44z" />
    <glyph glyph-name="Ibreve" unicode="&#x12c;" horiz-adv-x="317" 
d="M97 56v588c0 34 27 61 62 61c34 0 61 -27 61 -61v-588c0 -34 -27 -61 -61 -61c-35 0 -62 27 -62 61zM159 756c-70 0 -124 29 -153 80c-5 10 -8 21 -8 31c0 24 18 43 42 43c21 0 31 -11 38 -23c15 -27 38 -46 81 -46s67 19 81 46c7 12 17 23 38 23c24 0 42 -19 42 -43
c0 -10 -3 -21 -8 -31c-29 -51 -82 -80 -153 -80z" />
    <glyph glyph-name="ibreve" unicode="&#x12d;" horiz-adv-x="286" 
d="M83 55v418c0 34 26 61 60 61s61 -27 61 -61v-418c0 -34 -27 -60 -61 -60c-33 0 -60 26 -60 60zM143 593c-70 0 -124 29 -153 80c-5 10 -8 21 -8 31c0 24 18 43 42 43c21 0 31 -11 38 -23c15 -27 38 -46 81 -46s67 19 81 46c7 12 17 23 38 23c24 0 42 -19 42 -43
c0 -10 -3 -21 -8 -31c-29 -51 -82 -80 -153 -80z" />
    <glyph glyph-name="Iogonek" unicode="&#x12e;" horiz-adv-x="317" 
d="M67 -82c0 32 16 59 48 93c-11 10 -18 24 -18 41v592c0 34 27 61 62 61c34 0 61 -27 61 -61v-589c0 -20 -6 -33 -23 -50c-29 -30 -39 -48 -39 -68c0 -24 16 -34 44 -41c23 -5 34 -15 34 -31c0 -19 -14 -31 -40 -31c-65 0 -129 24 -129 84z" />
    <glyph glyph-name="iogonek" unicode="&#x12f;" horiz-adv-x="286" 
d="M204 473v-421c0 -20 -7 -32 -24 -48c-29 -28 -40 -47 -40 -68c0 -23 15 -33 43 -40c22 -5 33 -15 33 -31c0 -19 -14 -31 -40 -31c-64 0 -128 24 -128 81c0 36 22 68 53 96c-11 10 -18 24 -18 40v422c0 34 26 61 60 61s61 -27 61 -61zM74 664v6c0 36 30 59 69 59
s69 -23 69 -59v-6c0 -36 -30 -60 -69 -60s-69 24 -69 60z" />
    <glyph glyph-name="Idotaccent" unicode="&#x130;" horiz-adv-x="317" 
d="M97 56v588c0 34 27 61 62 61c34 0 61 -27 61 -61v-588c0 -34 -27 -61 -61 -61c-35 0 -62 27 -62 61zM227 821v-7c0 -37 -31 -61 -68 -61s-67 24 -67 61v7c0 37 30 62 67 62s68 -25 68 -62z" />
    <glyph glyph-name="dotlessi" unicode="&#x131;" horiz-adv-x="286" 
d="M83 55v418c0 34 26 61 60 61s61 -27 61 -61v-418c0 -34 -27 -60 -61 -60c-33 0 -60 26 -60 60z" />
    <glyph glyph-name="Kcommaaccent" unicode="&#x136;" horiz-adv-x="713" 
d="M356 -161c-30 5 -54 22 -54 53v2c0 31 25 53 61 53c39 0 64 -28 64 -70v-3c0 -50 -14 -83 -43 -108c-22 -20 -58 -33 -86 -33c-18 0 -26 10 -26 21s7 18 21 21c45 10 64 31 63 64zM90 56v588c0 34 27 61 62 61c34 0 61 -27 61 -61v-296l332 334c14 15 29 23 51 23
c34 0 57 -27 57 -57c0 -19 -8 -33 -22 -46l-218 -210l236 -293c10 -13 17 -25 17 -44c0 -34 -27 -60 -62 -60c-24 0 -39 12 -52 29l-225 287l-114 -110v-145c0 -34 -27 -61 -61 -61c-35 0 -62 27 -62 61z" />
    <glyph glyph-name="kcommaaccent" unicode="&#x137;" horiz-adv-x="580" 
d="M295 -166c-30 5 -54 22 -54 53v2c0 31 25 53 61 53c39 0 64 -28 64 -70v-3c0 -50 -14 -83 -43 -108c-22 -20 -58 -33 -86 -33c-18 0 -26 10 -26 21s7 18 21 21c45 10 64 31 63 64zM76 55v620c0 33 26 60 60 60s61 -27 61 -60v-390l227 223c16 16 31 26 52 26
c32 0 53 -26 53 -55c0 -20 -10 -35 -27 -51l-140 -129l160 -209c11 -15 16 -26 16 -40c0 -33 -26 -55 -57 -55c-24 0 -38 8 -53 27l-151 201l-80 -76v-92c0 -34 -27 -60 -61 -60c-33 0 -60 26 -60 60z" />
    <glyph glyph-name="Lacute" unicode="&#x139;" horiz-adv-x="619" 
d="M169 753c-17 0 -30 8 -30 21c0 7 4 16 8 22l57 88c11 18 27 29 48 29c32 0 72 -20 72 -39c0 -11 -7 -21 -17 -30l-67 -64c-24 -22 -43 -27 -71 -27zM90 62v582c0 34 27 61 62 61c34 0 61 -27 61 -61v-532h317c31 0 56 -25 56 -56s-25 -56 -56 -56h-378
c-35 0 -62 27 -62 62z" />
    <glyph glyph-name="lacute" unicode="&#x13a;" horiz-adv-x="286" 
d="M141 770c-17 0 -30 8 -30 21c0 7 4 16 8 22l57 88c11 18 27 29 48 29c32 0 72 -20 72 -39c0 -11 -7 -21 -17 -30l-67 -64c-24 -22 -43 -27 -71 -27zM83 55v620c0 33 26 60 60 60s61 -27 61 -60v-620c0 -34 -27 -60 -61 -60c-33 0 -60 26 -60 60z" />
    <glyph glyph-name="Lcommaaccent" unicode="&#x13b;" horiz-adv-x="619" 
d="M325 -166c-30 5 -54 22 -54 53v2c0 31 25 53 61 53c39 0 64 -28 64 -70v-3c0 -50 -14 -83 -43 -108c-22 -20 -58 -33 -86 -33c-18 0 -26 10 -26 21s7 18 21 21c45 10 64 31 63 64zM90 62v582c0 34 27 61 62 61c34 0 61 -27 61 -61v-532h317c31 0 56 -25 56 -56
s-25 -56 -56 -56h-378c-35 0 -62 27 -62 62z" />
    <glyph glyph-name="lcommaaccent" unicode="&#x13c;" horiz-adv-x="286" 
d="M135 -166c-30 5 -54 22 -54 53v2c0 31 25 53 61 53c39 0 64 -28 64 -70v-3c0 -50 -14 -83 -43 -108c-22 -20 -58 -33 -86 -33c-18 0 -26 10 -26 21s7 18 21 21c45 10 64 31 63 64zM83 55v620c0 33 26 60 60 60s61 -27 61 -60v-620c0 -34 -27 -60 -61 -60
c-33 0 -60 26 -60 60z" />
    <glyph glyph-name="Lcaron" unicode="&#x13d;" horiz-adv-x="619" 
d="M297 534l3 124c1 25 18 44 44 44h18c18 0 31 -10 31 -29c0 -6 -1 -14 -4 -23l-37 -121c-5 -16 -13 -25 -29 -25s-27 11 -26 30zM90 62v582c0 34 27 61 62 61c34 0 61 -27 61 -61v-532h317c31 0 56 -25 56 -56s-25 -56 -56 -56h-378c-35 0 -62 27 -62 62z" />
    <glyph glyph-name="lcaron" unicode="&#x13e;" horiz-adv-x="286" 
d="M260 567l3 124c1 25 18 44 44 44h18c18 0 31 -10 31 -29c0 -6 -1 -14 -4 -23l-37 -121c-5 -16 -13 -25 -29 -25s-27 11 -26 30zM83 55v620c0 33 26 60 60 60s61 -27 61 -60v-620c0 -34 -27 -60 -61 -60c-33 0 -60 26 -60 60z" />
    <glyph glyph-name="Ldot" unicode="&#x13f;" horiz-adv-x="619" 
d="M90 62v582c0 34 27 61 62 61c34 0 61 -27 61 -61v-532h317c31 0 56 -25 56 -56s-25 -56 -56 -56h-378c-35 0 -62 27 -62 62zM543 381v-7c0 -37 -31 -61 -68 -61s-67 24 -67 61v7c0 37 30 62 67 62s68 -25 68 -62z" />
    <glyph glyph-name="ldot" unicode="&#x140;" horiz-adv-x="367" 
d="M382 380v-11c0 -31 -23 -55 -55 -55s-55 24 -55 55v11c0 31 23 55 55 55s55 -24 55 -55zM83 55v620c0 33 26 60 60 60s61 -27 61 -60v-620c0 -34 -27 -60 -61 -60c-33 0 -60 26 -60 60z" />
    <glyph glyph-name="Lslash" unicode="&#x141;" horiz-adv-x="649" 
d="M410 366l-168 -51v-203h318c31 0 56 -25 56 -56s-25 -56 -56 -56h-378c-35 0 -62 27 -62 62v216l-6 -2c-7 -1 -16 -3 -20 -3c-31 0 -54 25 -54 56c0 26 16 45 39 52l41 12v251c0 34 27 61 61 61s61 -27 61 -61v-214l133 40c7 2 16 3 20 3c30 0 54 -25 54 -55
c0 -27 -17 -46 -39 -52z" />
    <glyph glyph-name="lslash" unicode="&#x142;" horiz-adv-x="346" 
d="M277 346l-44 -14v-277c0 -34 -26 -60 -60 -60c-33 0 -60 26 -60 60v241l-9 -2c-7 -2 -16 -3 -20 -3c-31 0 -54 24 -54 55c0 27 17 45 39 52c0 0 19 6 44 13v264c0 33 26 60 60 60s60 -27 60 -60v-228l9 3c7 2 16 3 20 3c31 0 54 -25 54 -55c0 -27 -16 -46 -39 -52z" />
    <glyph glyph-name="Nacute" unicode="&#x143;" horiz-adv-x="790" 
d="M391 753c-17 0 -30 8 -30 21c0 7 4 16 8 22l57 88c11 18 27 29 48 29c32 0 72 -20 72 -39c0 -11 -7 -21 -17 -30l-67 -64c-24 -22 -43 -27 -71 -27zM90 55v587c0 34 27 62 62 62h13c30 0 47 -15 64 -36l350 -453v430c0 33 27 60 60 60c34 0 61 -27 61 -60v-588
c0 -34 -26 -61 -60 -61h-5c-29 0 -47 15 -64 37l-360 466v-444c0 -33 -27 -60 -60 -60c-34 0 -61 27 -61 60z" />
    <glyph glyph-name="nacute" unicode="&#x144;" horiz-adv-x="620" 
d="M309 590c-17 0 -30 8 -30 21c0 7 4 16 8 22l57 88c11 18 27 29 48 29c32 0 72 -20 72 -39c0 -11 -7 -21 -17 -30l-67 -64c-24 -22 -43 -27 -71 -27zM76 55v418c0 34 26 61 60 61s61 -27 61 -61v-26c34 49 83 92 165 92c119 0 188 -80 188 -202v-282
c0 -34 -26 -60 -60 -60s-61 26 -61 60v245c0 82 -41 129 -113 129c-70 0 -119 -49 -119 -131v-243c0 -34 -27 -60 -61 -60c-33 0 -60 26 -60 60z" />
    <glyph glyph-name="Ncommaaccent" unicode="&#x145;" horiz-adv-x="790" 
d="M386 -161c-30 5 -54 22 -54 53v2c0 31 25 53 61 53c39 0 64 -28 64 -70v-3c0 -50 -14 -83 -43 -108c-22 -20 -58 -33 -86 -33c-18 0 -26 10 -26 21s7 18 21 21c45 10 64 31 63 64zM90 55v587c0 34 27 62 62 62h13c30 0 47 -15 64 -36l350 -453v430c0 33 27 60 60 60
c34 0 61 -27 61 -60v-588c0 -34 -26 -61 -60 -61h-5c-29 0 -47 15 -64 37l-360 466v-444c0 -33 -27 -60 -60 -60c-34 0 -61 27 -61 60z" />
    <glyph glyph-name="ncommaaccent" unicode="&#x146;" horiz-adv-x="620" 
d="M304 -166c-30 5 -54 22 -54 53v2c0 31 25 53 61 53c39 0 64 -28 64 -70v-3c0 -50 -14 -83 -43 -108c-22 -20 -58 -33 -86 -33c-18 0 -26 10 -26 21s7 18 21 21c45 10 64 31 63 64zM76 55v418c0 34 26 61 60 61s61 -27 61 -61v-26c34 49 83 92 165 92
c119 0 188 -80 188 -202v-282c0 -34 -26 -60 -60 -60s-61 26 -61 60v245c0 82 -41 129 -113 129c-70 0 -119 -49 -119 -131v-243c0 -34 -27 -60 -61 -60c-33 0 -60 26 -60 60z" />
    <glyph glyph-name="Ncaron" unicode="&#x147;" horiz-adv-x="790" 
d="M396 838l52 45c27 22 46 27 74 27c16 0 27 -7 27 -20c0 -8 -6 -16 -12 -24l-66 -83c-14 -18 -30 -29 -58 -29h-36c-28 0 -43 11 -58 29l-66 83c-6 8 -12 16 -12 24c0 13 13 20 29 20c28 0 48 -5 74 -27zM90 55v587c0 34 27 62 62 62h13c30 0 47 -15 64 -36l350 -453v430
c0 33 27 60 60 60c34 0 61 -27 61 -60v-588c0 -34 -26 -61 -60 -61h-5c-29 0 -47 15 -64 37l-360 466v-444c0 -33 -27 -60 -60 -60c-34 0 -61 27 -61 60z" />
    <glyph glyph-name="ncaron" unicode="&#x148;" horiz-adv-x="620" 
d="M313 675l52 45c27 22 46 27 74 27c16 0 27 -7 27 -20c0 -8 -6 -16 -12 -24l-66 -83c-14 -18 -30 -29 -58 -29h-36c-28 0 -43 11 -58 29l-66 83c-6 8 -12 16 -12 24c0 13 13 20 29 20c28 0 48 -5 74 -27zM76 55v418c0 34 26 61 60 61s61 -27 61 -61v-26
c34 49 83 92 165 92c119 0 188 -80 188 -202v-282c0 -34 -26 -60 -60 -60s-61 26 -61 60v245c0 82 -41 129 -113 129c-70 0 -119 -49 -119 -131v-243c0 -34 -27 -60 -61 -60c-33 0 -60 26 -60 60z" />
    <glyph glyph-name="Omacron" unicode="&#x14c;" horiz-adv-x="850" 
d="M558 779h-266c-24 0 -44 20 -44 44s20 44 44 44h266c24 0 44 -20 44 -44s-20 -44 -44 -44zM424 -12c-215 0 -365 163 -365 360v2c0 197 152 362 367 362s365 -163 365 -360v-2c0 -197 -152 -362 -367 -362zM426 102c139 0 236 110 236 246v2c0 136 -99 249 -238 249
s-236 -111 -236 -247v-2c0 -136 99 -248 238 -248z" />
    <glyph glyph-name="omacron" unicode="&#x14d;" horiz-adv-x="657" 
d="M461 606h-266c-24 0 -44 20 -44 44s20 44 44 44h266c24 0 44 -20 44 -44s-20 -44 -44 -44zM327 -12c-161 0 -280 123 -280 273v2c0 151 120 276 282 276s281 -123 281 -274v-2c0 -150 -120 -275 -283 -275zM329 94c98 0 160 76 160 167v2c0 93 -67 170 -162 170
c-97 0 -159 -76 -159 -168v-2c0 -92 67 -169 161 -169z" />
    <glyph glyph-name="Obreve" unicode="&#x14e;" horiz-adv-x="850" 
d="M424 -12c-215 0 -365 163 -365 360v2c0 197 152 362 367 362s365 -163 365 -360v-2c0 -197 -152 -362 -367 -362zM426 102c139 0 236 110 236 246v2c0 136 -99 249 -238 249s-236 -111 -236 -247v-2c0 -136 99 -248 238 -248zM425 766c-70 0 -124 29 -153 80
c-5 10 -8 21 -8 31c0 24 18 43 42 43c21 0 31 -11 38 -23c15 -27 38 -46 81 -46s67 19 81 46c7 12 17 23 38 23c24 0 42 -19 42 -43c0 -10 -3 -21 -8 -31c-29 -51 -82 -80 -153 -80z" />
    <glyph glyph-name="obreve" unicode="&#x14f;" horiz-adv-x="657" 
d="M327 -12c-161 0 -280 123 -280 273v2c0 151 120 276 282 276s281 -123 281 -274v-2c0 -150 -120 -275 -283 -275zM329 94c98 0 160 76 160 167v2c0 93 -67 170 -162 170c-97 0 -159 -76 -159 -168v-2c0 -92 67 -169 161 -169zM328 593c-70 0 -124 29 -153 80
c-5 10 -8 21 -8 31c0 24 18 43 42 43c21 0 31 -11 38 -23c15 -27 38 -46 81 -46s67 19 81 46c7 12 17 23 38 23c24 0 42 -19 42 -43c0 -10 -3 -21 -8 -31c-29 -51 -82 -80 -153 -80z" />
    <glyph glyph-name="Ohungarumlaut" unicode="&#x150;" horiz-adv-x="850" 
d="M503 763c-17 0 -29 8 -29 21c0 7 4 16 8 22l58 88c11 19 24 29 46 29c31 0 70 -19 70 -38c0 -12 -7 -21 -17 -31l-67 -64c-24 -22 -41 -27 -69 -27zM320 763c-17 0 -29 8 -29 21c0 7 4 16 8 22l58 88c11 19 25 29 46 29c31 0 70 -19 70 -38c0 -12 -7 -21 -17 -31l-67 -64
c-23 -22 -41 -27 -69 -27zM424 -12c-215 0 -365 163 -365 360v2c0 197 152 362 367 362s365 -163 365 -360v-2c0 -197 -152 -362 -367 -362zM426 102c139 0 236 110 236 246v2c0 136 -99 249 -238 249s-236 -111 -236 -247v-2c0 -136 99 -248 238 -248z" />
    <glyph glyph-name="ohungarumlaut" unicode="&#x151;" horiz-adv-x="657" 
d="M407 590c-17 0 -29 8 -29 21c0 7 4 16 8 22l58 88c11 19 24 29 46 29c31 0 70 -19 70 -38c0 -12 -7 -21 -17 -31l-67 -64c-24 -22 -41 -27 -69 -27zM224 590c-17 0 -29 8 -29 21c0 7 4 16 8 22l58 88c11 19 25 29 46 29c31 0 70 -19 70 -38c0 -12 -7 -21 -17 -31l-67 -64
c-23 -22 -41 -27 -69 -27zM327 -12c-161 0 -280 123 -280 273v2c0 151 120 276 282 276s281 -123 281 -274v-2c0 -150 -120 -275 -283 -275zM329 94c98 0 160 76 160 167v2c0 93 -67 170 -162 170c-97 0 -159 -76 -159 -168v-2c0 -92 67 -169 161 -169z" />
    <glyph glyph-name="OE" unicode="&#x152;" horiz-adv-x="1098" 
d="M431 0c-220 0 -372 150 -372 348v2c0 197 152 350 372 350h556c31 0 56 -25 56 -55c0 -31 -25 -55 -56 -55h-324v-182h279c31 0 56 -25 56 -56c0 -30 -25 -54 -56 -54h-279v-188h329c31 0 56 -25 56 -55c0 -31 -25 -55 -56 -55h-561zM431 112h109v476h-109
c-147 0 -243 -99 -243 -236v-2c0 -137 96 -238 243 -238z" />
    <glyph glyph-name="oe" unicode="&#x153;" horiz-adv-x="1040" 
d="M602 301h272c-9 78 -54 139 -134 139c-75 0 -127 -57 -138 -139zM326 94c95 0 156 76 156 167v2c0 93 -66 170 -158 170c-95 0 -156 -78 -156 -168v-2c0 -92 66 -169 158 -169zM943 58c-48 -43 -108 -70 -189 -70c-92 0 -171 42 -218 111c-46 -67 -124 -111 -215 -111
c-152 0 -274 123 -274 273v2c0 151 122 276 279 276c90 0 166 -43 211 -109c44 66 117 109 204 109c167 0 250 -138 250 -260c0 -34 -25 -58 -57 -58h-331c14 -86 75 -134 152 -134c51 0 91 18 125 46c9 7 18 11 31 11c28 0 48 -21 48 -49c0 -15 -6 -28 -16 -37z" />
    <glyph glyph-name="Racute" unicode="&#x154;" horiz-adv-x="723" 
d="M90 56v582c0 35 27 62 62 62h250c88 0 157 -26 202 -70c37 -38 58 -90 58 -151v-2c0 -112 -65 -180 -159 -209l134 -169c12 -15 20 -28 20 -47c0 -34 -29 -57 -59 -57c-28 0 -46 13 -60 32l-170 217h-155v-188c0 -34 -27 -61 -61 -61c-35 0 -62 27 -62 61zM213 353h180
c88 0 144 46 144 117v2c0 75 -54 116 -145 116h-179v-235zM365 753c-17 0 -30 8 -30 21c0 7 4 16 8 22l57 88c11 18 27 29 48 29c32 0 72 -20 72 -39c0 -11 -7 -21 -17 -30l-67 -64c-24 -22 -43 -27 -71 -27z" />
    <glyph glyph-name="racute" unicode="&#x155;" horiz-adv-x="413" 
d="M220 590c-17 0 -30 8 -30 21c0 7 4 16 8 22l57 88c11 18 27 29 48 29c32 0 72 -20 72 -39c0 -11 -7 -21 -17 -30l-67 -64c-24 -22 -43 -27 -71 -27zM76 55v418c0 34 26 61 60 61s61 -27 61 -61v-54c28 66 80 116 133 116c38 0 60 -25 60 -60c0 -32 -21 -53 -48 -58
c-86 -15 -145 -81 -145 -206v-156c0 -33 -27 -60 -61 -60c-33 0 -60 26 -60 60z" />
    <glyph glyph-name="Rcommaaccent" unicode="&#x156;" horiz-adv-x="723" 
d="M90 56v582c0 35 27 62 62 62h250c88 0 157 -26 202 -70c37 -38 58 -90 58 -151v-2c0 -112 -65 -180 -159 -209l134 -169c12 -15 20 -28 20 -47c0 -34 -29 -57 -59 -57c-28 0 -46 13 -60 32l-170 217h-155v-188c0 -34 -27 -61 -61 -61c-35 0 -62 27 -62 61zM213 353h180
c88 0 144 46 144 117v2c0 75 -54 116 -145 116h-179v-235zM360 -161c-30 5 -54 22 -54 53v2c0 31 25 53 61 53c39 0 64 -28 64 -70v-3c0 -50 -14 -83 -43 -108c-22 -20 -58 -33 -86 -33c-18 0 -26 10 -26 21s7 18 21 21c45 10 64 31 63 64z" />
    <glyph glyph-name="rcommaaccent" unicode="&#x157;" horiz-adv-x="413" 
d="M135 -166c-30 5 -54 22 -54 53v2c0 31 25 53 61 53c39 0 64 -28 64 -70v-3c0 -50 -14 -83 -43 -108c-22 -20 -58 -33 -86 -33c-18 0 -26 10 -26 21s7 18 21 21c45 10 64 31 63 64zM76 55v418c0 34 26 61 60 61s61 -27 61 -61v-54c28 66 80 116 133 116
c38 0 60 -25 60 -60c0 -32 -21 -53 -48 -58c-86 -15 -145 -81 -145 -206v-156c0 -33 -27 -60 -61 -60c-33 0 -60 26 -60 60z" />
    <glyph glyph-name="Rcaron" unicode="&#x158;" horiz-adv-x="723" 
d="M90 56v582c0 35 27 62 62 62h250c88 0 157 -26 202 -70c37 -38 58 -90 58 -151v-2c0 -112 -65 -180 -159 -209l134 -169c12 -15 20 -28 20 -47c0 -34 -29 -57 -59 -57c-28 0 -46 13 -60 32l-170 217h-155v-188c0 -34 -27 -61 -61 -61c-35 0 -62 27 -62 61zM213 353h180
c88 0 144 46 144 117v2c0 75 -54 116 -145 116h-179v-235zM369 838l52 45c27 22 46 27 74 27c16 0 27 -7 27 -20c0 -8 -6 -16 -12 -24l-66 -83c-14 -18 -30 -29 -58 -29h-36c-28 0 -43 11 -58 29l-66 83c-6 8 -12 16 -12 24c0 13 13 20 29 20c28 0 48 -5 74 -27z" />
    <glyph glyph-name="rcaron" unicode="&#x159;" horiz-adv-x="413" 
d="M225 675l52 45c27 22 46 27 74 27c16 0 27 -7 27 -20c0 -8 -6 -16 -12 -24l-66 -83c-14 -18 -30 -29 -58 -29h-36c-28 0 -43 11 -58 29l-66 83c-6 8 -12 16 -12 24c0 13 13 20 29 20c28 0 48 -5 74 -27zM76 55v418c0 34 26 61 60 61s61 -27 61 -61v-54
c28 66 80 116 133 116c38 0 60 -25 60 -60c0 -32 -21 -53 -48 -58c-86 -15 -145 -81 -145 -206v-156c0 -33 -27 -60 -61 -60c-33 0 -60 26 -60 60z" />
    <glyph glyph-name="Sacute" unicode="&#x15a;" horiz-adv-x="640" 
d="M322 763c-17 0 -30 8 -30 21c0 7 4 16 8 22l57 88c11 18 27 29 48 29c32 0 72 -20 72 -39c0 -11 -7 -21 -17 -30l-67 -64c-24 -22 -43 -27 -71 -27zM335 -10c-95 0 -185 30 -263 88c-14 10 -24 27 -24 47c0 32 26 57 58 57c17 0 28 -5 36 -11c58 -46 120 -72 196 -72
s124 36 124 88v2c0 50 -28 77 -158 107c-149 36 -233 80 -233 209v2c0 120 100 203 239 203c88 0 159 -23 222 -65c14 -8 27 -25 27 -49c0 -32 -26 -57 -58 -57c-12 0 -22 3 -32 9c-54 35 -106 53 -161 53c-72 0 -114 -37 -114 -83v-2c0 -54 32 -78 167 -110
c148 -36 224 -89 224 -205v-2c0 -131 -103 -209 -250 -209z" />
    <glyph glyph-name="sacute" unicode="&#x15b;" horiz-adv-x="501" 
d="M250 590c-17 0 -30 8 -30 21c0 7 4 16 8 22l57 88c11 18 27 29 48 29c32 0 72 -20 72 -39c0 -11 -7 -21 -17 -30l-67 -64c-24 -22 -43 -27 -71 -27zM257 -10c-67 0 -140 21 -201 63c-13 7 -23 22 -23 42c0 27 21 49 49 49c10 0 19 -3 26 -7c51 -34 104 -51 152 -51
c52 0 82 22 82 57v2c0 41 -56 55 -118 74c-78 22 -165 54 -165 155v2c0 100 83 161 188 161c56 0 115 -16 166 -43c17 -9 29 -25 29 -46c0 -28 -22 -49 -50 -49c-10 0 -16 2 -24 6c-43 22 -87 36 -124 36c-47 0 -74 -22 -74 -52v-2c0 -39 57 -55 119 -75
c77 -24 164 -59 164 -154v-2c0 -111 -86 -166 -196 -166z" />
    <glyph glyph-name="Scedilla" unicode="&#x15e;" horiz-adv-x="640" 
d="M585 199c0 -119 -85 -194 -211 -207l-53 -123c-8 -19 -18 -29 -39 -29c-24 0 -70 23 -70 44c0 8 3 16 8 23l59 87c-74 9 -145 37 -207 84c-14 10 -24 27 -24 47c0 32 26 57 58 57c17 0 28 -5 36 -11c58 -46 120 -72 196 -72s124 36 124 88v2c0 50 -28 77 -158 107
c-149 36 -233 80 -233 209v2c0 120 100 203 239 203c88 0 159 -23 222 -65c14 -8 27 -25 27 -49c0 -32 -26 -57 -58 -57c-12 0 -22 3 -32 9c-54 35 -106 53 -161 53c-72 0 -114 -37 -114 -83v-2c0 -54 32 -78 167 -110c148 -36 224 -89 224 -205v-2z" />
    <glyph glyph-name="scedilla" unicode="&#x15f;" horiz-adv-x="501" 
d="M453 156c0 -99 -68 -153 -160 -164l-53 -123c-8 -19 -18 -29 -39 -29c-24 0 -70 23 -70 44c0 8 3 16 8 23l60 88c-49 8 -99 28 -143 58c-13 7 -23 22 -23 42c0 27 21 49 49 49c10 0 19 -3 26 -7c51 -34 104 -51 152 -51c52 0 82 22 82 57v2c0 41 -56 55 -118 74
c-78 22 -165 54 -165 155v2c0 100 83 161 188 161c56 0 115 -16 166 -43c17 -9 29 -25 29 -46c0 -28 -22 -49 -50 -49c-10 0 -16 2 -24 6c-43 22 -87 36 -124 36c-47 0 -74 -22 -74 -52v-2c0 -39 57 -55 119 -75c77 -24 164 -59 164 -154v-2z" />
    <glyph glyph-name="Scaron" unicode="&#x160;" horiz-adv-x="640" 
d="M326 848l52 45c27 22 46 27 74 27c16 0 27 -7 27 -20c0 -8 -6 -16 -12 -24l-66 -83c-14 -18 -30 -29 -58 -29h-36c-28 0 -43 11 -58 29l-66 83c-6 8 -12 16 -12 24c0 13 13 20 29 20c28 0 48 -5 74 -27zM335 -10c-95 0 -185 30 -263 88c-14 10 -24 27 -24 47
c0 32 26 57 58 57c17 0 28 -5 36 -11c58 -46 120 -72 196 -72s124 36 124 88v2c0 50 -28 77 -158 107c-149 36 -233 80 -233 209v2c0 120 100 203 239 203c88 0 159 -23 222 -65c14 -8 27 -25 27 -49c0 -32 -26 -57 -58 -57c-12 0 -22 3 -32 9c-54 35 -106 53 -161 53
c-72 0 -114 -37 -114 -83v-2c0 -54 32 -78 167 -110c148 -36 224 -89 224 -205v-2c0 -131 -103 -209 -250 -209z" />
    <glyph glyph-name="scaron" unicode="&#x161;" horiz-adv-x="501" 
d="M254 675l52 45c27 22 46 27 74 27c16 0 27 -7 27 -20c0 -8 -6 -16 -12 -24l-66 -83c-14 -18 -30 -29 -58 -29h-36c-28 0 -43 11 -58 29l-66 83c-6 8 -12 16 -12 24c0 13 13 20 29 20c28 0 48 -5 74 -27zM257 -10c-67 0 -140 21 -201 63c-13 7 -23 22 -23 42
c0 27 21 49 49 49c10 0 19 -3 26 -7c51 -34 104 -51 152 -51c52 0 82 22 82 57v2c0 41 -56 55 -118 74c-78 22 -165 54 -165 155v2c0 100 83 161 188 161c56 0 115 -16 166 -43c17 -9 29 -25 29 -46c0 -28 -22 -49 -50 -49c-10 0 -16 2 -24 6c-43 22 -87 36 -124 36
c-47 0 -74 -22 -74 -52v-2c0 -39 57 -55 119 -75c77 -24 164 -59 164 -154v-2c0 -111 -86 -166 -196 -166z" />
    <glyph glyph-name="Tcommaaccent" unicode="&#x162;" horiz-adv-x="648" 
d="M315 -166c-30 5 -54 22 -54 53v2c0 31 25 53 61 53c39 0 64 -28 64 -70v-3c0 -50 -14 -83 -43 -108c-22 -20 -58 -33 -86 -33c-18 0 -26 10 -26 21s7 18 21 21c45 10 64 31 63 64zM262 56v530h-170c-32 0 -57 26 -57 57s25 57 57 57h465c31 0 56 -26 56 -57
s-25 -57 -56 -57h-171v-530c0 -34 -28 -61 -62 -61s-62 27 -62 61z" />
    <glyph glyph-name="tcommaaccent" unicode="&#x163;" horiz-adv-x="411" 
d="M215 -166c-30 5 -54 22 -54 53v2c0 31 25 53 61 53c39 0 64 -28 64 -70v-3c0 -50 -14 -83 -43 -108c-22 -20 -58 -33 -86 -33c-18 0 -26 10 -26 21s7 18 21 21c45 10 64 31 63 64zM253 -9c-89 0 -152 39 -152 155v278h-20c-29 0 -52 23 -52 52s23 52 52 52h20v90
c0 33 27 60 61 60c33 0 60 -27 60 -60v-90h95c29 0 53 -23 53 -52s-24 -52 -53 -52h-95v-259c0 -47 24 -66 65 -66c14 0 26 3 30 3c27 0 51 -22 51 -50c0 -22 -15 -40 -32 -47c-26 -9 -51 -14 -83 -14z" />
    <glyph glyph-name="Tcaron" unicode="&#x164;" horiz-adv-x="648" 
d="M325 838l52 45c27 22 46 27 74 27c16 0 27 -7 27 -20c0 -8 -6 -16 -12 -24l-66 -83c-14 -18 -30 -29 -58 -29h-36c-28 0 -43 11 -58 29l-66 83c-6 8 -12 16 -12 24c0 13 13 20 29 20c28 0 48 -5 74 -27zM262 56v530h-170c-32 0 -57 26 -57 57s25 57 57 57h465
c31 0 56 -26 56 -57s-25 -57 -56 -57h-171v-530c0 -34 -28 -61 -62 -61s-62 27 -62 61z" />
    <glyph glyph-name="tcaron" unicode="&#x165;" horiz-adv-x="411" 
d="M305 612l3 124c1 25 18 44 44 44h18c18 0 31 -10 31 -29c0 -6 -1 -14 -4 -23l-37 -121c-5 -16 -13 -25 -29 -25s-27 11 -26 30zM253 -9c-89 0 -152 39 -152 155v278h-20c-29 0 -52 23 -52 52s23 52 52 52h20v90c0 33 27 60 61 60c33 0 60 -27 60 -60v-90h95
c29 0 53 -23 53 -52s-24 -52 -53 -52h-95v-259c0 -47 24 -66 65 -66c14 0 26 3 30 3c27 0 51 -22 51 -50c0 -22 -15 -40 -32 -47c-26 -9 -51 -14 -83 -14z" />
    <glyph glyph-name="Umacron" unicode="&#x16a;" horiz-adv-x="757" 
d="M377 -11c-182 0 -298 105 -298 308v347c0 34 27 61 62 61c34 0 61 -27 61 -61v-342c0 -130 67 -199 177 -199c109 0 176 65 176 194v347c0 34 27 61 62 61c34 0 61 -27 61 -61v-341c0 -209 -118 -314 -301 -314zM511 769h-266c-24 0 -44 20 -44 44s20 44 44 44h266
c24 0 44 -20 44 -44s-20 -44 -44 -44z" />
    <glyph glyph-name="umacron" unicode="&#x16b;" horiz-adv-x="620" 
d="M545 473v-418c0 -33 -27 -60 -61 -60c-33 0 -61 26 -61 60v27c-34 -50 -83 -93 -165 -93c-119 0 -188 80 -188 203v281c0 34 27 61 60 61c34 0 61 -27 61 -61v-245c0 -82 41 -128 113 -128c70 0 119 48 119 130v243c0 34 27 61 61 61c33 0 61 -27 61 -61zM439 606h-266
c-24 0 -44 20 -44 44s20 44 44 44h266c24 0 44 -20 44 -44s-20 -44 -44 -44z" />
    <glyph glyph-name="Ubreve" unicode="&#x16c;" horiz-adv-x="757" 
d="M377 -11c-182 0 -298 105 -298 308v347c0 34 27 61 62 61c34 0 61 -27 61 -61v-342c0 -130 67 -199 177 -199c109 0 176 65 176 194v347c0 34 27 61 62 61c34 0 61 -27 61 -61v-341c0 -209 -118 -314 -301 -314zM378 752c-70 0 -124 29 -153 80c-5 10 -8 21 -8 31
c0 24 18 43 42 43c21 0 31 -11 38 -23c15 -27 38 -46 81 -46s67 19 81 46c7 12 17 23 38 23c24 0 42 -19 42 -43c0 -10 -3 -21 -8 -31c-29 -51 -82 -80 -153 -80z" />
    <glyph glyph-name="ubreve" unicode="&#x16d;" horiz-adv-x="620" 
d="M545 473v-418c0 -33 -27 -60 -61 -60c-33 0 -61 26 -61 60v27c-34 -50 -83 -93 -165 -93c-119 0 -188 80 -188 203v281c0 34 27 61 60 61c34 0 61 -27 61 -61v-245c0 -82 41 -128 113 -128c70 0 119 48 119 130v243c0 34 27 61 61 61c33 0 61 -27 61 -61zM306 593
c-70 0 -124 29 -153 80c-5 10 -8 21 -8 31c0 24 18 43 42 43c21 0 31 -11 38 -23c15 -27 38 -46 81 -46s67 19 81 46c7 12 17 23 38 23c24 0 42 -19 42 -43c0 -10 -3 -21 -8 -31c-29 -51 -82 -80 -153 -80z" />
    <glyph glyph-name="Uring" unicode="&#x16e;" horiz-adv-x="757" 
d="M378 742c-60 0 -114 50 -114 109v2c0 60 54 109 114 109s114 -49 114 -109v-2c0 -59 -54 -109 -114 -109zM378 790c34 0 62 28 62 61v2c0 33 -28 61 -62 61s-62 -28 -62 -61v-2c0 -33 28 -61 62 -61zM377 -11c-182 0 -298 105 -298 308v347c0 34 27 61 62 61
c34 0 61 -27 61 -61v-342c0 -130 67 -199 177 -199c109 0 176 65 176 194v347c0 34 27 61 62 61c34 0 61 -27 61 -61v-341c0 -209 -118 -314 -301 -314z" />
    <glyph glyph-name="uring" unicode="&#x16f;" horiz-adv-x="620" 
d="M306 592c-60 0 -114 50 -114 109v2c0 60 54 109 114 109s114 -49 114 -109v-2c0 -59 -54 -109 -114 -109zM306 640c34 0 62 28 62 61v2c0 33 -28 61 -62 61s-62 -28 -62 -61v-2c0 -33 28 -61 62 -61zM545 473v-418c0 -33 -27 -60 -61 -60c-33 0 -61 26 -61 60v27
c-34 -50 -83 -93 -165 -93c-119 0 -188 80 -188 203v281c0 34 27 61 60 61c34 0 61 -27 61 -61v-245c0 -82 41 -128 113 -128c70 0 119 48 119 130v243c0 34 27 61 61 61c33 0 61 -27 61 -61z" />
    <glyph glyph-name="Uhungarumlaut" unicode="&#x170;" horiz-adv-x="757" 
d="M377 -11c-182 0 -298 105 -298 308v347c0 34 27 61 62 61c34 0 61 -27 61 -61v-342c0 -130 67 -199 177 -199c109 0 176 65 176 194v347c0 34 27 61 62 61c34 0 61 -27 61 -61v-341c0 -209 -118 -314 -301 -314zM457 753c-17 0 -29 8 -29 21c0 7 4 16 8 22l58 88
c11 19 24 29 46 29c31 0 70 -19 70 -38c0 -12 -7 -21 -17 -31l-67 -64c-24 -22 -41 -27 -69 -27zM274 753c-17 0 -29 8 -29 21c0 7 4 16 8 22l58 88c11 19 25 29 46 29c31 0 70 -19 70 -38c0 -12 -7 -21 -17 -31l-67 -64c-23 -22 -41 -27 -69 -27z" />
    <glyph glyph-name="uhungarumlaut" unicode="&#x171;" horiz-adv-x="620" 
d="M545 473v-418c0 -33 -27 -60 -61 -60c-33 0 -61 26 -61 60v27c-34 -50 -83 -93 -165 -93c-119 0 -188 80 -188 203v281c0 34 27 61 60 61c34 0 61 -27 61 -61v-245c0 -82 41 -128 113 -128c70 0 119 48 119 130v243c0 34 27 61 61 61c33 0 61 -27 61 -61zM385 590
c-17 0 -29 8 -29 21c0 7 4 16 8 22l58 88c11 19 24 29 46 29c31 0 70 -19 70 -38c0 -12 -7 -21 -17 -31l-67 -64c-24 -22 -41 -27 -69 -27zM202 590c-17 0 -29 8 -29 21c0 7 4 16 8 22l58 88c11 19 25 29 46 29c31 0 70 -19 70 -38c0 -12 -7 -21 -17 -31l-67 -64
c-23 -22 -41 -27 -69 -27z" />
    <glyph glyph-name="Uogonek" unicode="&#x172;" horiz-adv-x="757" 
d="M294 -82c0 27 12 50 33 74c-153 18 -248 121 -248 305v347c0 34 27 61 62 61c34 0 61 -27 61 -61v-342c0 -130 67 -199 177 -199c109 0 176 65 176 194v347c0 34 27 61 62 61c34 0 61 -27 61 -61v-341c0 -196 -104 -300 -268 -312c-18 -20 -24 -37 -24 -54
c0 -24 16 -34 44 -41c22 -5 33 -15 33 -31c0 -19 -14 -31 -40 -31c-64 0 -129 24 -129 84z" />
    <glyph glyph-name="uogonek" unicode="&#x173;" horiz-adv-x="620" 
d="M545 473v-421c0 -20 -7 -32 -24 -48c-29 -28 -40 -47 -40 -68c0 -23 15 -33 43 -40c22 -5 33 -15 33 -31c0 -19 -14 -31 -40 -31c-64 0 -128 24 -128 81c0 36 22 68 53 96c-12 10 -19 50 -19 67v4c-34 -50 -83 -93 -165 -93c-119 0 -188 80 -188 203v281
c0 34 27 61 60 61c34 0 61 -27 61 -61v-245c0 -82 41 -128 113 -128c70 0 119 48 119 130v243c0 34 27 61 61 61c33 0 61 -27 61 -61z" />
    <glyph glyph-name="Wcircumflex" unicode="&#x174;" horiz-adv-x="1099" 
d="M548 825l-52 -45c-26 -22 -46 -27 -74 -27c-15 0 -27 7 -27 20c0 7 6 16 12 24l66 83c15 18 30 29 58 29h36c28 0 44 -11 58 -29l66 -83c6 -8 12 -17 12 -24c0 -13 -13 -20 -29 -20c-28 0 -47 5 -74 27zM254 41l-207 580c-3 7 -5 16 -5 24c0 34 29 60 63 60
c30 0 53 -19 61 -45l161 -481l158 479c10 29 31 49 62 49h9c31 0 53 -20 62 -49l158 -479l161 482c9 25 30 44 60 44c33 0 61 -26 61 -59c0 -8 -3 -18 -6 -25l-207 -580c-11 -31 -34 -51 -64 -51h-12c-30 0 -52 19 -63 51l-156 457l-156 -457c-11 -32 -34 -51 -64 -51h-12
c-30 0 -52 19 -64 51z" />
    <glyph glyph-name="wcircumflex" unicode="&#x175;" horiz-adv-x="853" 
d="M424 662l-52 -45c-26 -22 -46 -27 -74 -27c-15 0 -27 7 -27 20c0 7 6 16 12 24l66 83c15 18 30 29 58 29h36c28 0 44 -11 58 -29l66 -83c6 -8 12 -17 12 -24c0 -13 -13 -20 -29 -20c-28 0 -47 5 -74 27zM253 -9c-30 0 -55 17 -67 54l-142 402c-3 8 -6 21 -6 31
c0 29 23 56 59 56c30 0 50 -20 59 -48l102 -320l103 320c9 28 31 48 62 48h7c31 0 53 -20 62 -48l104 -320l103 321c8 26 27 47 59 47c33 0 57 -26 57 -56c0 -9 -3 -21 -5 -27l-144 -406c-13 -37 -38 -54 -67 -54h-4c-30 0 -55 17 -66 52l-103 314l-104 -314
c-11 -35 -36 -52 -65 -52h-4z" />
    <glyph glyph-name="Ycircumflex" unicode="&#x176;" horiz-adv-x="696" 
d="M287 56v216l-241 331c-8 12 -14 26 -14 43c0 33 27 59 62 59c27 0 45 -15 60 -37l195 -281l198 282c15 22 33 37 59 37c36 0 60 -27 60 -60c0 -17 -8 -32 -17 -44l-239 -327v-219c0 -34 -27 -61 -62 -61c-34 0 -61 27 -61 61zM347 825l-52 -45c-26 -22 -46 -27 -74 -27
c-15 0 -27 7 -27 20c0 7 6 16 12 24l66 83c15 18 30 29 58 29h36c28 0 44 -11 58 -29l66 -83c6 -8 12 -17 12 -24c0 -13 -13 -20 -29 -20c-28 0 -47 5 -74 27z" />
    <glyph glyph-name="ycircumflex" unicode="&#x177;" horiz-adv-x="587" 
d="M172 -163c-34 0 -59 5 -84 15c-18 6 -38 21 -38 50c0 30 23 50 49 50c10 0 16 -2 22 -4c14 -4 25 -7 42 -7c36 0 55 15 75 56l4 11l-196 438c-4 9 -7 21 -7 29c0 34 26 59 60 59c31 0 48 -18 59 -46l142 -351l132 351c10 25 27 46 58 46c32 0 58 -25 58 -57
c0 -10 -3 -23 -5 -29l-193 -463c-45 -108 -93 -148 -178 -148zM293 662l-52 -45c-26 -22 -46 -27 -74 -27c-15 0 -27 7 -27 20c0 7 6 16 12 24l66 83c15 18 30 29 58 29h36c28 0 44 -11 58 -29l66 -83c6 -8 12 -17 12 -24c0 -13 -13 -20 -29 -20c-28 0 -47 5 -74 27z" />
    <glyph glyph-name="Ydieresis" unicode="&#x178;" horiz-adv-x="696" 
d="M287 56v216l-241 331c-8 12 -14 26 -14 43c0 33 27 59 62 59c27 0 45 -15 60 -37l195 -281l198 282c15 22 33 37 59 37c36 0 60 -27 60 -60c0 -17 -8 -32 -17 -44l-239 -327v-219c0 -34 -27 -61 -62 -61c-34 0 -61 27 -61 61zM448 883c36 0 65 -26 65 -62v-7
c0 -36 -29 -61 -65 -61c-37 0 -66 25 -66 61v7c0 36 29 62 66 62zM249 883c36 0 65 -26 65 -62v-7c0 -36 -29 -61 -65 -61c-37 0 -66 25 -66 61v7c0 36 29 62 66 62z" />
    <glyph glyph-name="Zacute" unicode="&#x179;" horiz-adv-x="702" 
d="M354 753c-17 0 -30 8 -30 21c0 7 4 16 8 22l57 88c11 18 27 29 48 29c32 0 72 -20 72 -39c0 -11 -7 -21 -17 -30l-67 -64c-24 -22 -43 -27 -71 -27zM116 0c-29 0 -55 25 -55 54v3c0 21 8 40 23 57l394 477h-351c-29 0 -54 24 -54 54s25 55 54 55h460c30 0 55 -25 55 -54
v-3c0 -21 -8 -39 -22 -57l-395 -477h364c30 0 55 -25 55 -55s-25 -54 -55 -54h-473z" />
    <glyph glyph-name="zacute" unicode="&#x17a;" horiz-adv-x="560" 
d="M279 590c-17 0 -30 8 -30 21c0 7 4 16 8 22l57 88c11 18 27 29 48 29c32 0 72 -20 72 -39c0 -11 -7 -21 -17 -30l-67 -64c-24 -22 -43 -27 -71 -27zM108 0c-34 0 -59 21 -59 49v2c0 23 8 38 27 58l281 320h-249c-28 0 -50 22 -50 49c0 28 22 50 50 50h348
c33 0 58 -20 58 -48v-3c0 -23 -8 -38 -26 -58l-282 -320h260c28 0 50 -22 50 -50c0 -27 -22 -49 -50 -49h-358z" />
    <glyph glyph-name="Zdotaccent" unicode="&#x17b;" horiz-adv-x="702" 
d="M116 0c-29 0 -55 25 -55 54v3c0 21 8 40 23 57l394 477h-351c-29 0 -54 24 -54 54s25 55 54 55h460c30 0 55 -25 55 -54v-3c0 -21 -8 -39 -22 -57l-395 -477h364c30 0 55 -25 55 -55s-25 -54 -55 -54h-473zM425 821v-7c0 -37 -31 -61 -68 -61s-67 24 -67 61v7
c0 37 30 62 67 62s68 -25 68 -62z" />
    <glyph glyph-name="zdotaccent" unicode="&#x17c;" horiz-adv-x="560" 
d="M108 0c-34 0 -59 21 -59 49v2c0 23 8 38 27 58l281 320h-249c-28 0 -50 22 -50 49c0 28 22 50 50 50h348c33 0 58 -20 58 -48v-3c0 -23 -8 -38 -26 -58l-282 -320h260c28 0 50 -22 50 -50c0 -27 -22 -49 -50 -49h-358zM350 658v-7c0 -37 -31 -61 -68 -61s-67 24 -67 61v7
c0 37 30 62 67 62s68 -25 68 -62z" />
    <glyph glyph-name="Zcaron" unicode="&#x17d;" horiz-adv-x="702" 
d="M358 838l52 45c27 22 46 27 74 27c16 0 27 -7 27 -20c0 -8 -6 -16 -12 -24l-66 -83c-14 -18 -30 -29 -58 -29h-36c-28 0 -43 11 -58 29l-66 83c-6 8 -12 16 -12 24c0 13 13 20 29 20c28 0 48 -5 74 -27zM116 0c-29 0 -55 25 -55 54v3c0 21 8 40 23 57l394 477h-351
c-29 0 -54 24 -54 54s25 55 54 55h460c30 0 55 -25 55 -54v-3c0 -21 -8 -39 -22 -57l-395 -477h364c30 0 55 -25 55 -55s-25 -54 -55 -54h-473z" />
    <glyph glyph-name="zcaron" unicode="&#x17e;" horiz-adv-x="560" 
d="M283 675l52 45c27 22 46 27 74 27c16 0 27 -7 27 -20c0 -8 -6 -16 -12 -24l-66 -83c-14 -18 -30 -29 -58 -29h-36c-28 0 -43 11 -58 29l-66 83c-6 8 -12 16 -12 24c0 13 13 20 29 20c28 0 48 -5 74 -27zM108 0c-34 0 -59 21 -59 49v2c0 23 8 38 27 58l281 320h-249
c-28 0 -50 22 -50 49c0 28 22 50 50 50h348c33 0 58 -20 58 -48v-3c0 -23 -8 -38 -26 -58l-282 -320h260c28 0 50 -22 50 -50c0 -27 -22 -49 -50 -49h-358z" />
    <glyph glyph-name="florin" unicode="&#x192;" horiz-adv-x="527" 
d="M106 -7c-41 0 -65 20 -65 51c0 27 20 48 50 50c36 3 55 23 63 67l35 195h-34c-28 0 -51 22 -51 50s23 51 51 51h51l18 94c19 101 67 155 175 155c19 0 35 -1 52 -3c24 -3 45 -23 45 -51s-22 -50 -50 -50c-4 0 -14 2 -24 2c-47 0 -71 -23 -81 -78l-12 -69h81
c29 0 51 -23 51 -51s-22 -50 -51 -50h-99l-38 -213c-19 -107 -75 -150 -167 -150z" />
    <glyph glyph-name="Aringacute" unicode="&#x1fa;" horiz-adv-x="790" 
d="M392 907c-17 0 -30 8 -30 21c0 7 4 16 8 22l57 88c11 18 27 29 48 29c32 0 72 -20 72 -39c0 -11 -7 -21 -17 -30l-67 -64c-24 -22 -43 -27 -71 -27zM461 684l271 -605c5 -9 7 -17 7 -25c0 -32 -26 -59 -59 -59c-29 0 -48 17 -60 43l-57 131h-340l-58 -135
c-11 -24 -31 -39 -57 -39c-33 0 -58 26 -58 57c0 9 4 18 7 26l272 606c-28 19 -48 51 -48 87v2c0 59 54 109 114 109s114 -50 114 -109v-2c0 -35 -19 -68 -48 -87zM395 710c34 0 62 28 62 61v2c0 33 -28 61 -62 61s-62 -28 -62 -61v-2c0 -33 28 -61 62 -61zM270 278h246
l-123 283z" />
    <glyph glyph-name="aringacute" unicode="&#x1fb;" horiz-adv-x="587" 
d="M228 -11c-99 0 -187 57 -187 163v2c0 114 89 170 218 170c59 0 101 -9 142 -22v13c0 75 -46 115 -131 115c-46 0 -84 -8 -117 -21c-7 -2 -13 -3 -19 -3c-28 0 -51 22 -51 50c0 22 15 41 33 48c50 19 101 31 170 31c79 0 138 -21 175 -59c39 -38 57 -94 57 -163v-260
c0 -33 -26 -58 -59 -58c-35 0 -59 24 -59 51v20c-36 -43 -91 -77 -172 -77zM294 593c-60 0 -114 50 -114 109v2c0 60 54 109 114 109s114 -49 114 -109v-2c0 -59 -54 -109 -114 -109zM262 77c80 0 141 46 141 113v36c-31 12 -72 21 -120 21c-78 0 -124 -33 -124 -88v-2
c0 -51 45 -80 103 -80zM291 843c-17 0 -30 8 -30 21c0 7 4 16 8 22l57 88c11 18 27 29 48 29c32 0 72 -20 72 -39c0 -11 -7 -21 -17 -30l-67 -64c-24 -22 -43 -27 -71 -27zM294 641c34 0 62 28 62 61v2c0 33 -28 61 -62 61s-62 -28 -62 -61v-2c0 -33 28 -61 62 -61z" />
    <glyph glyph-name="AEacute" unicode="&#x1fc;" horiz-adv-x="1045" 
d="M618 753c-17 0 -30 8 -30 21c0 7 4 16 8 22l57 88c11 18 27 29 48 29c32 0 72 -20 72 -39c0 -11 -7 -21 -17 -30l-67 -64c-24 -22 -43 -27 -71 -27zM34 45c0 12 4 26 10 35l337 577c15 27 37 43 72 43h481c30 0 55 -25 55 -55c0 -31 -25 -55 -55 -55h-324v-182h279
c30 0 55 -25 55 -56c0 -30 -25 -54 -55 -54h-279v-188h329c30 0 55 -25 55 -55c0 -31 -25 -55 -55 -55h-390c-35 0 -62 27 -62 62v107h-264l-81 -141c-13 -22 -30 -34 -54 -34c-30 0 -54 22 -54 51zM286 278h201v315h-20z" />
    <glyph glyph-name="aeacute" unicode="&#x1fd;" horiz-adv-x="952" 
d="M469 590c-17 0 -30 8 -30 21c0 7 4 16 8 22l57 88c11 18 27 29 48 29c32 0 72 -20 72 -39c0 -11 -7 -21 -17 -30l-67 -64c-24 -22 -43 -27 -71 -27zM514 301h272c-8 78 -54 139 -134 139c-74 0 -127 -57 -138 -139zM260 78c58 0 111 25 157 68c-10 25 -17 51 -20 81
c-31 11 -71 20 -116 20c-77 0 -122 -33 -122 -88v-2c0 -49 45 -79 101 -79zM855 58c-48 -43 -107 -70 -190 -70c-82 0 -156 34 -204 90c-59 -49 -132 -89 -221 -89c-110 0 -199 59 -199 163v2c0 114 89 170 216 170c58 0 99 -9 140 -22v13c0 75 -45 115 -129 115
c-45 0 -81 -8 -115 -21c-7 -2 -13 -3 -19 -3c-28 0 -51 22 -51 50c0 22 15 41 33 48c50 20 101 31 168 31c92 0 154 -30 186 -86c42 55 107 90 185 90c165 0 248 -138 248 -260c0 -34 -25 -58 -57 -58h-330c13 -86 74 -134 151 -134c52 0 92 18 126 46c8 7 17 11 30 11
c28 0 49 -21 49 -49c0 -15 -7 -28 -17 -37z" />
    <glyph glyph-name="Oslashacute" unicode="&#x1fe;" horiz-adv-x="850" 
d="M424 -12c-85 0 -159 25 -218 67l-48 -48c-9 -10 -22 -17 -38 -17c-25 0 -43 18 -43 40c0 15 8 28 17 37l47 49c-52 63 -82 144 -82 232v2c0 197 152 362 367 362c84 0 159 -25 218 -68l48 49c10 10 23 17 38 17c25 0 43 -18 43 -39c0 -16 -8 -29 -17 -38l-47 -49
c52 -63 82 -144 82 -232v-2c0 -197 -152 -362 -367 -362zM426 99c139 0 238 112 238 249v2c0 53 -16 102 -42 143l-335 -350c39 -28 86 -44 139 -44zM186 350c0 -53 15 -102 42 -143l334 349c-38 28 -85 45 -138 45c-139 0 -238 -112 -238 -249v-2zM421 763
c-17 0 -30 8 -30 21c0 7 4 16 8 22l57 88c11 18 27 29 48 29c32 0 72 -20 72 -39c0 -11 -7 -21 -17 -30l-67 -64c-24 -22 -43 -27 -71 -27z" />
    <glyph glyph-name="oslashacute" unicode="&#x1ff;" horiz-adv-x="657" 
d="M327 -12c-62 0 -117 18 -162 48l-29 -30c-11 -11 -23 -18 -38 -18c-21 0 -39 17 -39 37c0 16 8 28 17 37l29 30c-37 46 -58 105 -58 169v2c0 151 120 276 282 276c61 0 117 -18 162 -49l30 31c11 11 23 18 38 18c21 0 39 -16 39 -36c0 -16 -8 -28 -17 -38l-30 -30
c37 -47 59 -106 59 -170v-2c0 -150 -120 -275 -283 -275zM165 263c0 -32 8 -62 22 -88l229 234c-25 17 -56 27 -89 27c-99 0 -162 -78 -162 -171v-2zM329 91c100 0 163 78 163 170v2c0 32 -8 62 -23 88l-229 -234c25 -17 55 -26 89 -26zM325 590c-17 0 -30 8 -30 21
c0 7 4 16 8 22l57 88c11 18 27 29 48 29c32 0 72 -20 72 -39c0 -11 -7 -21 -17 -30l-67 -64c-24 -22 -43 -27 -71 -27z" />
    <glyph glyph-name="Scommaaccent" unicode="&#x218;" horiz-adv-x="640" 
d="M316 -169c-30 5 -54 22 -54 53v2c0 31 25 53 61 53c39 0 64 -28 64 -70v-3c0 -50 -14 -83 -43 -108c-22 -20 -58 -33 -86 -33c-18 0 -26 10 -26 21s7 18 21 21c45 10 64 31 63 64zM335 -10c-95 0 -185 30 -263 88c-14 10 -24 27 -24 47c0 32 26 57 58 57
c17 0 28 -5 36 -11c58 -46 120 -72 196 -72s124 36 124 88v2c0 50 -28 77 -158 107c-149 36 -233 80 -233 209v2c0 120 100 203 239 203c88 0 159 -23 222 -65c14 -8 27 -25 27 -49c0 -32 -26 -57 -58 -57c-12 0 -22 3 -32 9c-54 35 -106 53 -161 53
c-72 0 -114 -37 -114 -83v-2c0 -54 32 -78 167 -110c148 -36 224 -89 224 -205v-2c0 -131 -103 -209 -250 -209z" />
    <glyph glyph-name="scommaaccent" unicode="&#x219;" horiz-adv-x="501" 
d="M245 -166c-30 5 -54 22 -54 53v2c0 31 25 53 61 53c39 0 64 -28 64 -70v-3c0 -50 -14 -83 -43 -108c-22 -20 -58 -33 -86 -33c-18 0 -26 10 -26 21s7 18 21 21c45 10 64 31 63 64zM257 -10c-67 0 -140 21 -201 63c-13 7 -23 22 -23 42c0 27 21 49 49 49c10 0 19 -3 26 -7
c51 -34 104 -51 152 -51c52 0 82 22 82 57v2c0 41 -56 55 -118 74c-78 22 -165 54 -165 155v2c0 100 83 161 188 161c56 0 115 -16 166 -43c17 -9 29 -25 29 -46c0 -28 -22 -49 -50 -49c-10 0 -16 2 -24 6c-43 22 -87 36 -124 36c-47 0 -74 -22 -74 -52v-2
c0 -39 57 -55 119 -75c77 -24 164 -59 164 -154v-2c0 -111 -86 -166 -196 -166z" />
    <glyph glyph-name="schwa" unicode="&#x259;" horiz-adv-x="604" 
d="M437 227h-271c8 -78 54 -139 134 -139c74 0 126 57 137 139zM96 470c48 43 108 70 190 70c153 0 271 -111 271 -274v-2c0 -151 -107 -275 -258 -275c-168 0 -251 138 -251 260c0 34 26 58 57 58h331c-13 86 -74 134 -152 134c-51 0 -91 -18 -125 -46
c-9 -7 -17 -11 -31 -11c-27 0 -48 21 -48 49c0 15 7 28 16 37z" />
    <glyph glyph-name="circumflex" unicode="&#x2c6;" horiz-adv-x="500" 
d="M249 662l-52 -45c-26 -22 -46 -27 -74 -27c-15 0 -27 7 -27 20c0 7 6 16 12 24l66 83c15 18 30 29 58 29h36c28 0 44 -11 58 -29l66 -83c6 -8 12 -17 12 -24c0 -13 -13 -20 -29 -20c-28 0 -47 5 -74 27z" />
    <glyph glyph-name="caron" unicode="&#x2c7;" horiz-adv-x="500" 
d="M251 675l52 45c27 22 46 27 74 27c16 0 27 -7 27 -20c0 -8 -6 -16 -12 -24l-66 -83c-14 -18 -30 -29 -58 -29h-36c-28 0 -43 11 -58 29l-66 83c-6 8 -12 16 -12 24c0 13 13 20 29 20c28 0 48 -5 74 -27z" />
    <glyph glyph-name="breve" unicode="&#x2d8;" horiz-adv-x="500" 
d="M250 593c-70 0 -124 29 -153 80c-5 10 -8 21 -8 31c0 24 18 43 42 43c21 0 31 -11 38 -23c15 -27 38 -46 81 -46s67 19 81 46c7 12 17 23 38 23c24 0 42 -19 42 -43c0 -10 -3 -21 -8 -31c-29 -51 -82 -80 -153 -80z" />
    <glyph glyph-name="dotaccent" unicode="&#x2d9;" horiz-adv-x="500" 
d="M318 658v-7c0 -37 -31 -61 -68 -61s-67 24 -67 61v7c0 37 30 62 67 62s68 -25 68 -62z" />
    <glyph glyph-name="ring" unicode="&#x2da;" horiz-adv-x="500" 
d="M250 593c-60 0 -114 50 -114 109v2c0 60 54 109 114 109s114 -49 114 -109v-2c0 -59 -54 -109 -114 -109zM250 641c34 0 62 28 62 61v2c0 33 -28 61 -62 61s-62 -28 -62 -61v-2c0 -33 28 -61 62 -61z" />
    <glyph glyph-name="ogonek" unicode="&#x2db;" horiz-adv-x="500" 
d="M182 -82c0 34 20 63 52 94l81 -5c-30 -28 -41 -49 -41 -70c0 -24 16 -34 44 -41c22 -5 33 -15 33 -31c0 -19 -14 -31 -40 -31c-64 0 -129 24 -129 84z" />
    <glyph glyph-name="tilde" unicode="&#x2dc;" horiz-adv-x="500" 
d="M137 603c-7 -11 -17 -20 -33 -20c-20 0 -37 16 -37 33c0 6 2 16 4 23c21 58 49 91 102 91c55 0 108 -40 144 -40c23 0 34 10 46 32c7 11 18 20 33 20c20 0 37 -16 37 -33c0 -6 -2 -16 -4 -23c-21 -58 -49 -91 -102 -91c-55 0 -108 40 -144 40c-23 0 -34 -10 -46 -32z" />
    <glyph glyph-name="hungarumlaut" unicode="&#x2dd;" horiz-adv-x="500" 
d="M283 590c-17 0 -29 8 -29 21c0 7 4 16 8 22l58 88c11 19 24 29 46 29c31 0 70 -19 70 -38c0 -12 -7 -21 -17 -31l-67 -64c-24 -22 -41 -27 -69 -27zM100 590c-17 0 -29 8 -29 21c0 7 4 16 8 22l58 88c11 19 25 29 46 29c31 0 70 -19 70 -38c0 -12 -7 -21 -17 -31l-67 -64
c-23 -22 -41 -27 -69 -27z" />
    <glyph glyph-name="commaaccent" unicode="&#x326;" horiz-adv-x="500" 
d="M242 -166c-30 5 -54 22 -54 53v2c0 31 25 53 61 53c39 0 64 -28 64 -70v-3c0 -50 -14 -83 -43 -108c-22 -20 -58 -33 -86 -33c-18 0 -26 10 -26 21s7 18 21 21c45 10 64 31 63 64z" />
    <glyph glyph-name="Wgrave" unicode="&#x1e80;" horiz-adv-x="1099" 
d="M254 41l-207 580c-3 7 -5 16 -5 24c0 34 29 60 63 60c30 0 53 -19 61 -45l161 -481l158 479c10 29 31 49 62 49h9c31 0 53 -20 62 -49l158 -479l161 482c9 25 30 44 60 44c33 0 61 -26 61 -59c0 -8 -3 -18 -6 -25l-207 -580c-11 -31 -34 -51 -64 -51h-12
c-30 0 -52 19 -63 51l-156 457l-156 -457c-11 -32 -34 -51 -64 -51h-12c-30 0 -52 19 -64 51zM552 753c-28 0 -47 5 -70 27l-68 64c-10 9 -17 19 -17 30c0 19 40 39 72 39c21 0 37 -11 48 -29l57 -88c4 -6 9 -15 9 -22c0 -13 -13 -21 -31 -21z" />
    <glyph glyph-name="wgrave" unicode="&#x1e81;" horiz-adv-x="853" 
d="M253 -9c-30 0 -55 17 -67 54l-142 402c-3 8 -6 21 -6 31c0 29 23 56 59 56c30 0 50 -20 59 -48l102 -320l103 320c9 28 31 48 62 48h7c31 0 53 -20 62 -48l104 -320l103 321c8 26 27 47 59 47c33 0 57 -26 57 -56c0 -9 -3 -21 -5 -27l-144 -406c-13 -37 -38 -54 -67 -54
h-4c-30 0 -55 17 -66 52l-103 314l-104 -314c-11 -35 -36 -52 -65 -52h-4zM428 590c-28 0 -47 5 -70 27l-68 64c-10 9 -17 19 -17 30c0 19 40 39 72 39c21 0 37 -11 48 -29l57 -88c4 -6 9 -15 9 -22c0 -13 -13 -21 -31 -21z" />
    <glyph glyph-name="Wacute" unicode="&#x1e82;" horiz-adv-x="1099" 
d="M546 753c-17 0 -30 8 -30 21c0 7 4 16 8 22l57 88c11 18 27 29 48 29c32 0 72 -20 72 -39c0 -11 -7 -21 -17 -30l-67 -64c-24 -22 -43 -27 -71 -27zM254 41l-207 580c-3 7 -5 16 -5 24c0 34 29 60 63 60c30 0 53 -19 61 -45l161 -481l158 479c10 29 31 49 62 49h9
c31 0 53 -20 62 -49l158 -479l161 482c9 25 30 44 60 44c33 0 61 -26 61 -59c0 -8 -3 -18 -6 -25l-207 -580c-11 -31 -34 -51 -64 -51h-12c-30 0 -52 19 -63 51l-156 457l-156 -457c-11 -32 -34 -51 -64 -51h-12c-30 0 -52 19 -64 51z" />
    <glyph glyph-name="wacute" unicode="&#x1e83;" horiz-adv-x="853" 
d="M422 590c-17 0 -30 8 -30 21c0 7 4 16 8 22l57 88c11 18 27 29 48 29c32 0 72 -20 72 -39c0 -11 -7 -21 -17 -30l-67 -64c-24 -22 -43 -27 -71 -27zM253 -9c-30 0 -55 17 -67 54l-142 402c-3 8 -6 21 -6 31c0 29 23 56 59 56c30 0 50 -20 59 -48l102 -320l103 320
c9 28 31 48 62 48h7c31 0 53 -20 62 -48l104 -320l103 321c8 26 27 47 59 47c33 0 57 -26 57 -56c0 -9 -3 -21 -5 -27l-144 -406c-13 -37 -38 -54 -67 -54h-4c-30 0 -55 17 -66 52l-103 314l-104 -314c-11 -35 -36 -52 -65 -52h-4z" />
    <glyph glyph-name="Wdieresis" unicode="&#x1e84;" horiz-adv-x="1099" 
d="M649 883c36 0 65 -26 65 -62v-7c0 -36 -29 -61 -65 -61c-37 0 -66 25 -66 61v7c0 36 29 62 66 62zM450 883c36 0 65 -26 65 -62v-7c0 -36 -29 -61 -65 -61c-37 0 -66 25 -66 61v7c0 36 29 62 66 62zM254 41l-207 580c-3 7 -5 16 -5 24c0 34 29 60 63 60
c30 0 53 -19 61 -45l161 -481l158 479c10 29 31 49 62 49h9c31 0 53 -20 62 -49l158 -479l161 482c9 25 30 44 60 44c33 0 61 -26 61 -59c0 -8 -3 -18 -6 -25l-207 -580c-11 -31 -34 -51 -64 -51h-12c-30 0 -52 19 -63 51l-156 457l-156 -457c-11 -32 -34 -51 -64 -51h-12
c-30 0 -52 19 -64 51z" />
    <glyph glyph-name="wdieresis" unicode="&#x1e85;" horiz-adv-x="853" 
d="M525 720c36 0 65 -26 65 -62v-7c0 -36 -29 -61 -65 -61c-37 0 -66 25 -66 61v7c0 36 29 62 66 62zM326 720c36 0 65 -26 65 -62v-7c0 -36 -29 -61 -65 -61c-37 0 -66 25 -66 61v7c0 36 29 62 66 62zM253 -9c-30 0 -55 17 -67 54l-142 402c-3 8 -6 21 -6 31
c0 29 23 56 59 56c30 0 50 -20 59 -48l102 -320l103 320c9 28 31 48 62 48h7c31 0 53 -20 62 -48l104 -320l103 321c8 26 27 47 59 47c33 0 57 -26 57 -56c0 -9 -3 -21 -5 -27l-144 -406c-13 -37 -38 -54 -67 -54h-4c-30 0 -55 17 -66 52l-103 314l-104 -314
c-11 -35 -36 -52 -65 -52h-4z" />
    <glyph glyph-name="Ygrave" unicode="&#x1ef2;" horiz-adv-x="696" 
d="M287 56v216l-241 331c-8 12 -14 26 -14 43c0 33 27 59 62 59c27 0 45 -15 60 -37l195 -281l198 282c15 22 33 37 59 37c36 0 60 -27 60 -60c0 -17 -8 -32 -17 -44l-239 -327v-219c0 -34 -27 -61 -62 -61c-34 0 -61 27 -61 61zM351 753c-28 0 -47 5 -70 27l-68 64
c-10 9 -17 19 -17 30c0 19 40 39 72 39c21 0 37 -11 48 -29l57 -88c4 -6 9 -15 9 -22c0 -13 -13 -21 -31 -21z" />
    <glyph glyph-name="ygrave" unicode="&#x1ef3;" horiz-adv-x="587" 
d="M172 -163c-34 0 -59 5 -84 15c-18 6 -38 21 -38 50c0 30 23 50 49 50c10 0 16 -2 22 -4c14 -4 25 -7 42 -7c36 0 55 15 75 56l4 11l-196 438c-4 9 -7 21 -7 29c0 34 26 59 60 59c31 0 48 -18 59 -46l142 -351l132 351c10 25 27 46 58 46c32 0 58 -25 58 -57
c0 -10 -3 -23 -5 -29l-193 -463c-45 -108 -93 -148 -178 -148zM297 590c-28 0 -47 5 -70 27l-68 64c-10 9 -17 19 -17 30c0 19 40 39 72 39c21 0 37 -11 48 -29l57 -88c4 -6 9 -15 9 -22c0 -13 -13 -21 -31 -21z" />
    <glyph glyph-name="enspace" unicode="&#x2002;" horiz-adv-x="500" 
 />
    <glyph glyph-name="emspace" unicode="&#x2003;" horiz-adv-x="1000" 
 />
    <glyph glyph-name="threeperemspace" unicode="&#x2004;" horiz-adv-x="333" 
 />
    <glyph glyph-name="fourperemspace" unicode="&#x2005;" horiz-adv-x="250" 
 />
    <glyph glyph-name="thinspace" unicode="&#x2009;" horiz-adv-x="133" 
 />
    <glyph glyph-name="hairspace" unicode="&#x200a;" horiz-adv-x="75" 
 />
    <glyph glyph-name="endash" unicode="&#x2013;" horiz-adv-x="528" 
d="M108 249c-31 0 -57 26 -57 57c0 32 26 58 57 58h312c31 0 57 -26 57 -58c0 -31 -26 -57 -57 -57h-312z" />
    <glyph glyph-name="emdash" unicode="&#x2014;" horiz-adv-x="898" 
d="M108 249c-31 0 -57 26 -57 57c0 32 26 58 57 58h682c31 0 57 -26 57 -58c0 -31 -26 -57 -57 -57h-682z" />
    <glyph glyph-name="quoteleft" unicode="&#x2018;" horiz-adv-x="269" 
d="M235 676c0 -14 -10 -23 -24 -27c-46 -14 -70 -45 -68 -89c29 -8 57 -32 57 -68v-8c0 -38 -27 -67 -68 -67c-44 0 -72 34 -72 88v10c0 68 18 115 50 146c26 27 65 43 94 43c21 0 31 -12 31 -28z" />
    <glyph glyph-name="quoteright" unicode="&#x2019;" horiz-adv-x="269" 
d="M35 446c0 14 10 23 23 27c46 14 70 45 68 90c-29 7 -57 31 -57 67v8c0 38 27 67 68 67c44 0 72 -34 72 -88v-10c0 -68 -18 -115 -49 -146c-27 -27 -66 -43 -94 -43c-21 0 -31 12 -31 28z" />
    <glyph glyph-name="quotesinglbase" unicode="&#x201a;" horiz-adv-x="269" 
d="M30 -117c0 14 10 24 23 27c46 15 70 46 68 90c-29 8 -57 32 -57 68v8c0 38 27 67 68 67c45 0 72 -34 72 -88v-11c0 -68 -18 -114 -49 -146c-27 -26 -66 -43 -94 -43c-21 0 -31 13 -31 28z" />
    <glyph glyph-name="quotedblleft" unicode="&#x201c;" horiz-adv-x="501" 
d="M467 676c0 -14 -10 -23 -24 -27c-46 -14 -70 -45 -68 -89c29 -8 57 -32 57 -68v-8c0 -38 -27 -67 -68 -67c-44 0 -72 34 -72 88v10c0 68 18 115 49 146c27 27 66 43 94 43c21 0 32 -12 32 -28zM235 676c0 -14 -10 -23 -24 -27c-46 -14 -70 -45 -68 -89
c29 -8 57 -32 57 -68v-8c0 -38 -27 -67 -68 -67c-44 0 -72 34 -72 88v10c0 68 18 115 50 146c26 27 65 43 94 43c21 0 31 -12 31 -28z" />
    <glyph glyph-name="quotedblright" unicode="&#x201d;" horiz-adv-x="501" 
d="M35 446c0 14 10 23 23 27c46 14 70 45 68 90c-29 7 -57 31 -57 67v8c0 38 27 67 68 67c44 0 72 -34 72 -88v-10c0 -68 -18 -115 -49 -146c-27 -27 -66 -43 -94 -43c-21 0 -31 12 -31 28zM266 446c0 14 10 23 24 27c46 14 70 45 68 90c-29 7 -57 31 -57 67v8
c0 38 27 67 68 67c44 0 72 -34 72 -88v-10c0 -68 -18 -115 -50 -146c-26 -27 -65 -43 -94 -43c-21 0 -31 12 -31 28z" />
    <glyph glyph-name="quotedblbase" unicode="&#x201e;" horiz-adv-x="501" 
d="M30 -117c0 14 10 24 23 27c46 15 70 46 68 90c-29 8 -57 32 -57 68v8c0 38 27 67 68 67c45 0 72 -34 72 -88v-11c0 -68 -18 -114 -49 -146c-27 -26 -66 -43 -94 -43c-21 0 -31 13 -31 28zM261 -117c0 14 10 24 24 27c46 15 70 46 68 90c-29 8 -57 32 -57 68v8
c0 38 27 67 68 67c44 0 72 -35 72 -88v-11c0 -68 -18 -114 -50 -146c-26 -26 -65 -43 -94 -43c-21 0 -31 13 -31 28z" />
    <glyph glyph-name="dagger" unicode="&#x2020;" horiz-adv-x="410" 
d="M170 270l8 243l-90 -7c-21 -2 -37 14 -37 34c0 19 16 35 36 33l90 -7l-9 98c-2 24 16 41 37 41s39 -17 37 -41l-8 -98l89 7c21 2 36 -14 36 -33c0 -20 -16 -36 -37 -34l-89 7l7 -242c1 -22 -15 -38 -35 -38s-36 16 -35 37z" />
    <glyph glyph-name="daggerdbl" unicode="&#x2021;" horiz-adv-x="430" 
d="M178 36l9 98l-90 -7c-20 -2 -36 14 -36 33c0 20 16 36 37 34l89 -7l-8 163l8 163l-89 -7c-21 -2 -37 14 -37 34c0 19 16 35 36 33l90 -7l-9 98c-2 24 16 41 37 41s39 -17 37 -41l-8 -98l89 7c21 2 36 -14 36 -33c0 -20 -16 -36 -37 -34l-89 7l8 -163l-8 -163l89 7
c21 2 37 -14 37 -34c0 -19 -15 -35 -36 -33l-89 7l8 -98c2 -24 -16 -41 -37 -41s-39 17 -37 41z" />
    <glyph glyph-name="bullet" unicode="&#x2022;" horiz-adv-x="491" 
d="M246 211c-78 0 -142 62 -142 140v2c0 78 65 141 142 141c76 0 141 -63 141 -141v-2c0 -78 -64 -140 -141 -140z" />
    <glyph glyph-name="ellipsis" unicode="&#x2026;" horiz-adv-x="792" 
d="M590 74c0 39 28 69 69 69s69 -30 69 -69v-10c0 -39 -28 -69 -69 -69s-69 30 -69 69v10zM327 74c0 39 28 69 69 69s69 -30 69 -69v-10c0 -39 -28 -69 -69 -69s-69 30 -69 69v10zM64 74c0 39 28 69 69 69s69 -30 69 -69v-10c0 -39 -28 -69 -69 -69s-69 30 -69 69v10z" />
    <glyph glyph-name="perthousand" unicode="&#x2030;" horiz-adv-x="1228" 
d="M212 350c-98 0 -164 81 -164 177v2c0 98 67 179 166 179s164 -81 164 -177v-2c0 -97 -66 -179 -166 -179zM154 34c0 10 4 19 9 26l459 627c7 12 20 18 34 18c22 0 40 -17 40 -39c0 -10 -4 -19 -9 -26l-459 -627c-8 -12 -21 -18 -35 -18c-22 0 -39 17 -39 39zM1014 -8
c-98 0 -164 81 -164 177v2c0 98 67 179 166 179c98 0 164 -81 164 -177v-2c0 -97 -67 -179 -166 -179zM635 -8c-98 0 -164 81 -164 177v2c0 98 67 179 166 179c98 0 164 -81 164 -177v-2c0 -97 -67 -179 -166 -179zM214 427c47 0 75 46 75 100v2c0 56 -32 102 -77 102
c-47 0 -75 -46 -75 -100v-2c0 -57 32 -102 77 -102zM1016 69c47 0 75 46 75 100v2c0 56 -32 102 -77 102c-47 0 -75 -46 -75 -100v-2c0 -57 32 -102 77 -102zM637 69c47 0 75 46 75 100v2c0 56 -32 102 -77 102c-47 0 -75 -46 -75 -100v-2c0 -57 32 -102 77 -102z" />
    <glyph glyph-name="guilsinglleft" unicode="&#x2039;" horiz-adv-x="354" 
d="M237 42c-18 0 -33 9 -42 21l-129 166c-9 12 -14 22 -14 35s5 24 14 35l126 163c11 14 27 24 46 24c27 0 48 -23 48 -50c0 -13 -6 -25 -13 -34l-106 -137l108 -140c8 -10 12 -21 12 -33c0 -28 -22 -50 -50 -50z" />
    <glyph glyph-name="guilsinglright" unicode="&#x203a;" horiz-adv-x="354" 
d="M117 486c19 0 33 -10 42 -22l129 -165c9 -12 15 -22 15 -36c0 -13 -6 -23 -15 -35l-126 -162c-10 -14 -27 -24 -45 -24c-28 0 -49 23 -49 50c0 12 6 25 14 34l105 136l-107 140c-9 11 -13 21 -13 34c1 28 22 50 50 50z" />
    <glyph glyph-name="fraction" unicode="&#x2044;" horiz-adv-x="459" 
d="M-40 -57c0 10 3 19 7 27l419 768c8 15 24 25 43 25c26 0 48 -20 48 -46c0 -10 -3 -19 -7 -27l-419 -768c-8 -15 -24 -25 -43 -25c-26 0 -48 20 -48 46z" />
    <glyph glyph-name="Euro" unicode="&#x20ac;" horiz-adv-x="720" 
d="M670 140c0 -15 -6 -28 -12 -35c-54 -70 -121 -117 -224 -117c-148 0 -252 95 -290 237h-54c-24 0 -43 19 -43 43c0 23 19 43 43 43h39c-1 12 -1 25 -1 38c0 15 0 31 2 46h-40c-24 0 -43 19 -43 42c0 24 19 43 43 43h56c39 135 142 232 284 232c106 0 170 -42 222 -102
c8 -8 16 -23 16 -41c0 -32 -27 -58 -59 -58c-21 0 -35 10 -43 20c-38 46 -77 71 -139 71c-72 0 -126 -47 -154 -122h178c23 0 42 -19 42 -43c0 -23 -19 -42 -42 -42h-197c-2 -14 -2 -29 -2 -44c0 -14 0 -27 1 -40h198c23 0 42 -20 42 -43c0 -24 -19 -43 -42 -43h-180
c28 -80 85 -127 164 -127c60 0 99 29 137 76c10 12 24 20 43 20c30 0 55 -24 55 -54z" />
    <glyph glyph-name="published" unicode="&#x2117;" horiz-adv-x="830" 
d="M414 -12c-203 0 -361 163 -361 360v2c0 197 160 362 363 362s361 -163 361 -360v-2c0 -197 -160 -362 -363 -362zM414 24c185 0 325 147 325 326v2c0 179 -139 324 -323 324c-185 0 -325 -147 -325 -326v-2c0 -179 139 -324 323 -324zM286 199v311c0 20 17 37 37 37h116
c90 0 147 -50 147 -128v-2c0 -86 -71 -130 -155 -130h-71v-88c0 -21 -17 -37 -37 -37s-37 16 -37 37zM360 352h73c48 0 78 26 78 64v2c0 41 -30 63 -78 63h-73v-129z" />
    <glyph glyph-name="servicemark" unicode="&#x2120;" horiz-adv-x="705" 
d="M356 415v259c0 16 13 29 29 29h7c12 0 21 -7 26 -15l93 -148l94 148c6 10 14 15 25 15h7c16 0 28 -13 28 -29v-259c0 -16 -12 -28 -28 -28s-28 12 -28 28v180l-74 -112c-6 -9 -13 -15 -24 -15c-12 0 -19 5 -26 15l-72 111v-179c0 -16 -13 -28 -29 -28
c-15 0 -28 12 -28 28zM33 448c0 14 11 25 25 25c7 0 13 -2 18 -6c27 -19 59 -33 95 -33c38 0 60 16 60 40c0 23 -16 34 -73 47c-68 16 -113 35 -113 91v1c0 54 45 93 114 93c44 0 79 -13 103 -29c10 -6 15 -14 15 -24c0 -15 -11 -26 -26 -26c-6 0 -12 2 -16 5
c-21 13 -46 24 -77 24c-36 0 -56 -16 -56 -37c0 -24 18 -35 75 -48c67 -15 111 -38 111 -91c0 -58 -50 -94 -120 -94c-44 0 -90 16 -122 39c-8 6 -13 13 -13 23z" />
    <glyph glyph-name="trademark" unicode="&#x2122;" horiz-adv-x="690" 
d="M121 416v230h-74c-14 0 -26 13 -26 27c0 15 12 27 26 27h207c14 0 26 -12 26 -27c0 -14 -12 -27 -26 -27h-74v-230c0 -16 -13 -29 -30 -29c-16 0 -29 13 -29 29zM341 415v259c0 16 13 29 29 29h7c13 0 22 -7 27 -15l92 -148l94 148c6 10 14 15 26 15h7
c15 0 28 -13 28 -29v-259c0 -16 -13 -28 -29 -28c-15 0 -28 12 -28 28v180l-73 -112c-6 -9 -13 -15 -25 -15c-11 0 -18 5 -25 15l-73 111v-179c0 -16 -13 -28 -28 -28c-16 0 -29 12 -29 28z" />
    <glyph glyph-name="minus" unicode="&#x2212;" horiz-adv-x="634" 
d="M514 295h-395c-31 0 -56 25 -56 56c0 32 25 57 56 57h395c32 0 57 -25 57 -57c0 -31 -25 -56 -57 -56z" />
    <glyph glyph-name="Q.alt" horiz-adv-x="850" 
d="M791 350c0 -102 -40 -194 -109 -261l75 -76c17 -18 26 -34 26 -54c0 -39 -32 -66 -67 -66c-23 0 -44 10 -63 32l-86 90c-43 -17 -91 -27 -143 -27c-215 0 -365 163 -365 360v2c0 197 152 362 367 362s365 -163 365 -360v-2zM662 348v2c0 136 -99 249 -238 249
s-236 -111 -236 -247v-2c0 -136 99 -248 238 -248s236 110 236 246z" />
    <glyph glyph-name="a.alt" 
d="M474 446v28c0 33 27 60 60 60c34 0 61 -27 61 -61v-418c0 -34 -27 -60 -60 -60c-34 0 -61 26 -61 60v33c-39 -55 -94 -99 -180 -99c-124 0 -245 99 -245 274v2c0 175 119 274 245 274c87 0 142 -43 180 -93zM323 434c-83 0 -152 -64 -152 -169v-2
c0 -102 70 -169 152 -169c81 0 153 68 153 169v2c0 102 -72 169 -153 169z" />
    <glyph glyph-name="aacute.alt" 
d="M338 590c-17 0 -30 8 -30 21c0 7 4 16 8 22l57 88c11 18 27 29 48 29c32 0 72 -20 72 -39c0 -11 -7 -21 -17 -30l-67 -64c-24 -22 -43 -27 -71 -27zM474 446v28c0 33 27 60 60 60c34 0 61 -27 61 -61v-418c0 -34 -27 -60 -60 -60c-34 0 -61 26 -61 60v33
c-39 -55 -94 -99 -180 -99c-124 0 -245 99 -245 274v2c0 175 119 274 245 274c87 0 142 -43 180 -93zM323 434c-83 0 -152 -64 -152 -169v-2c0 -102 70 -169 152 -169c81 0 153 68 153 169v2c0 102 -72 169 -153 169z" />
    <glyph glyph-name="abreve.alt" 
d="M474 446v28c0 33 27 60 60 60c34 0 61 -27 61 -61v-418c0 -34 -27 -60 -60 -60c-34 0 -61 26 -61 60v33c-39 -55 -94 -99 -180 -99c-124 0 -245 99 -245 274v2c0 175 119 274 245 274c87 0 142 -43 180 -93zM323 434c-83 0 -152 -64 -152 -169v-2
c0 -102 70 -169 152 -169c81 0 153 68 153 169v2c0 102 -72 169 -153 169zM341 593c-70 0 -124 29 -153 80c-5 10 -8 21 -8 31c0 24 18 43 42 43c21 0 31 -11 38 -23c15 -27 38 -46 81 -46s67 19 81 46c7 12 17 23 38 23c24 0 42 -19 42 -43c0 -10 -3 -21 -8 -31
c-29 -51 -82 -80 -153 -80z" />
    <glyph glyph-name="acircumflex.alt" 
d="M340 662l-52 -45c-26 -22 -46 -27 -74 -27c-15 0 -27 7 -27 20c0 7 6 16 12 24l66 83c15 18 30 29 58 29h36c28 0 44 -11 58 -29l66 -83c6 -8 12 -17 12 -24c0 -13 -13 -20 -29 -20c-28 0 -47 5 -74 27zM474 446v28c0 33 27 60 60 60c34 0 61 -27 61 -61v-418
c0 -34 -27 -60 -60 -60c-34 0 -61 26 -61 60v33c-39 -55 -94 -99 -180 -99c-124 0 -245 99 -245 274v2c0 175 119 274 245 274c87 0 142 -43 180 -93zM323 434c-83 0 -152 -64 -152 -169v-2c0 -102 70 -169 152 -169c81 0 153 68 153 169v2c0 102 -72 169 -153 169z" />
    <glyph glyph-name="adieresis.alt" 
d="M441 720c36 0 65 -26 65 -62v-7c0 -36 -29 -61 -65 -61c-37 0 -66 25 -66 61v7c0 36 29 62 66 62zM242 720c36 0 65 -26 65 -62v-7c0 -36 -29 -61 -65 -61c-37 0 -66 25 -66 61v7c0 36 29 62 66 62zM474 446v28c0 33 27 60 60 60c34 0 61 -27 61 -61v-418
c0 -34 -27 -60 -60 -60c-34 0 -61 26 -61 60v33c-39 -55 -94 -99 -180 -99c-124 0 -245 99 -245 274v2c0 175 119 274 245 274c87 0 142 -43 180 -93zM323 434c-83 0 -152 -64 -152 -169v-2c0 -102 70 -169 152 -169c81 0 153 68 153 169v2c0 102 -72 169 -153 169z" />
    <glyph glyph-name="agrave.alt" 
d="M474 446v28c0 33 27 60 60 60c34 0 61 -27 61 -61v-418c0 -34 -27 -60 -60 -60c-34 0 -61 26 -61 60v33c-39 -55 -94 -99 -180 -99c-124 0 -245 99 -245 274v2c0 175 119 274 245 274c87 0 142 -43 180 -93zM323 434c-83 0 -152 -64 -152 -169v-2
c0 -102 70 -169 152 -169c81 0 153 68 153 169v2c0 102 -72 169 -153 169zM344 590c-28 0 -47 5 -70 27l-68 64c-10 9 -17 19 -17 30c0 19 40 39 72 39c21 0 37 -11 48 -29l57 -88c4 -6 9 -15 9 -22c0 -13 -13 -21 -31 -21z" />
    <glyph glyph-name="amacron.alt" 
d="M474 446v28c0 33 27 60 60 60c34 0 61 -27 61 -61v-418c0 -34 -27 -60 -60 -60c-34 0 -61 26 -61 60v33c-39 -55 -94 -99 -180 -99c-124 0 -245 99 -245 274v2c0 175 119 274 245 274c87 0 142 -43 180 -93zM323 434c-83 0 -152 -64 -152 -169v-2
c0 -102 70 -169 152 -169c81 0 153 68 153 169v2c0 102 -72 169 -153 169zM474 606h-266c-24 0 -44 20 -44 44s20 44 44 44h266c24 0 44 -20 44 -44s-20 -44 -44 -44z" />
    <glyph glyph-name="aogonek.alt" 
d="M323 434c-83 0 -152 -64 -152 -169v-2c0 -102 70 -169 152 -169c81 0 153 68 153 169v2c0 102 -72 169 -153 169zM474 446v28c0 33 27 60 60 60c34 0 61 -27 61 -61v-421c0 -20 -6 -32 -24 -48c-29 -28 -39 -47 -39 -68c0 -23 14 -33 42 -40c22 -5 33 -15 33 -31
c0 -19 -13 -31 -39 -31c-65 0 -128 24 -128 81c0 36 21 68 53 96c-12 10 -19 56 -19 72v5c-39 -55 -94 -99 -180 -99c-124 0 -245 99 -245 274v2c0 175 119 274 245 274c87 0 142 -43 180 -93z" />
    <glyph glyph-name="aring.alt" 
d="M341 593c-60 0 -114 50 -114 109v2c0 60 54 109 114 109s114 -49 114 -109v-2c0 -59 -54 -109 -114 -109zM341 641c34 0 62 28 62 61v2c0 33 -28 61 -62 61s-62 -28 -62 -61v-2c0 -33 28 -61 62 -61zM474 446v28c0 33 27 60 60 60c34 0 61 -27 61 -61v-418
c0 -34 -27 -60 -60 -60c-34 0 -61 26 -61 60v33c-39 -55 -94 -99 -180 -99c-124 0 -245 99 -245 274v2c0 175 119 274 245 274c87 0 142 -43 180 -93zM323 434c-83 0 -152 -64 -152 -169v-2c0 -102 70 -169 152 -169c81 0 153 68 153 169v2c0 102 -72 169 -153 169z" />
    <glyph glyph-name="aring.alt2" horiz-adv-x="587" 
d="M228 -11c-99 0 -187 57 -187 163v2c0 114 89 170 218 170c59 0 101 -9 142 -22v13c0 75 -46 115 -131 115c-46 0 -84 -8 -117 -21c-7 -2 -13 -3 -19 -3c-28 0 -51 22 -51 50c0 22 15 41 33 48c29 11 59 20 91 25c-16 18 -26 42 -26 68v2c0 59 53 109 114 109
c60 0 114 -50 114 -109v-2c0 -29 -13 -55 -34 -74c36 -9 65 -25 86 -47c39 -38 57 -94 57 -163v-260c0 -33 -26 -58 -59 -58c-35 0 -59 24 -59 51v20c-36 -43 -91 -77 -172 -77zM262 77c80 0 141 46 141 113v36c-31 12 -72 21 -120 21c-78 0 -124 -33 -124 -88v-2
c0 -51 45 -80 103 -80zM295 536c33 0 62 28 62 61v2c0 33 -28 61 -62 61s-62 -28 -62 -61v-2c0 -33 28 -61 62 -61z" />
    <glyph glyph-name="aringacute.alt" 
d="M338 843c-17 0 -30 8 -30 21c0 7 4 16 8 22l57 88c11 18 27 29 48 29c32 0 72 -20 72 -39c0 -11 -7 -21 -17 -30l-67 -64c-24 -22 -43 -27 -71 -27zM341 593c-60 0 -114 50 -114 109v2c0 60 54 109 114 109s114 -49 114 -109v-2c0 -59 -54 -109 -114 -109zM341 641
c34 0 62 28 62 61v2c0 33 -28 61 -62 61s-62 -28 -62 -61v-2c0 -33 28 -61 62 -61zM474 446v28c0 33 27 60 60 60c34 0 61 -27 61 -61v-418c0 -34 -27 -60 -60 -60c-34 0 -61 26 -61 60v33c-39 -55 -94 -99 -180 -99c-124 0 -245 99 -245 274v2c0 175 119 274 245 274
c87 0 142 -43 180 -93zM323 434c-83 0 -152 -64 -152 -169v-2c0 -102 70 -169 152 -169c81 0 153 68 153 169v2c0 102 -72 169 -153 169z" />
    <glyph glyph-name="aringacute.alt2" horiz-adv-x="587" 
d="M228 -11c-99 0 -187 57 -187 163v2c0 114 89 170 218 170c59 0 101 -9 142 -22v13c0 75 -46 115 -131 115c-46 0 -84 -8 -117 -21c-7 -2 -13 -3 -19 -3c-28 0 -51 22 -51 50c0 22 15 41 33 48c29 11 59 20 91 25c-16 18 -26 42 -26 68v2c0 59 53 109 114 109
c60 0 114 -50 114 -109v-2c0 -29 -13 -55 -34 -74c36 -9 65 -25 86 -47c39 -38 57 -94 57 -163v-260c0 -33 -26 -58 -59 -58c-35 0 -59 24 -59 51v20c-36 -43 -91 -77 -172 -77zM262 77c80 0 141 46 141 113v36c-31 12 -72 21 -120 21c-78 0 -124 -33 -124 -88v-2
c0 -51 45 -80 103 -80zM295 536c33 0 62 28 62 61v2c0 33 -28 61 -62 61s-62 -28 -62 -61v-2c0 -33 28 -61 62 -61zM291 738c-17 0 -30 8 -30 21c0 7 4 16 8 22l57 88c11 18 27 29 48 29c32 0 72 -20 72 -39c0 -11 -7 -21 -17 -30l-67 -64c-24 -22 -43 -27 -71 -27z" />
    <glyph glyph-name="atilde.alt" 
d="M474 446v28c0 33 27 60 60 60c34 0 61 -27 61 -61v-418c0 -34 -27 -60 -60 -60c-34 0 -61 26 -61 60v33c-39 -55 -94 -99 -180 -99c-124 0 -245 99 -245 274v2c0 175 119 274 245 274c87 0 142 -43 180 -93zM323 434c-83 0 -152 -64 -152 -169v-2
c0 -102 70 -169 152 -169c81 0 153 68 153 169v2c0 102 -72 169 -153 169zM232 603c-7 -11 -17 -20 -33 -20c-20 0 -37 16 -37 33c0 6 2 16 4 23c21 58 49 91 102 91c55 0 108 -40 144 -40c23 0 34 10 46 32c7 11 18 20 33 20c20 0 37 -16 37 -33c0 -6 -2 -16 -4 -23
c-21 -58 -49 -91 -102 -91c-55 0 -108 40 -144 40c-23 0 -34 -10 -46 -32z" />
    <glyph glyph-name="three.alt" horiz-adv-x="610" 
d="M311 -12c-95 0 -175 34 -235 87c-13 11 -23 25 -23 46c0 33 26 58 58 58c16 0 28 -5 38 -14c44 -41 96 -66 164 -66c77 0 125 40 125 102v2c0 63 -57 98 -154 98h-29c-28 0 -52 24 -52 52s24 52 52 52h32c81 0 132 40 132 100v2c0 55 -46 94 -121 94
c-56 0 -97 -24 -136 -64c-10 -10 -21 -17 -39 -17c-32 0 -57 25 -57 56c0 16 7 31 17 41c53 58 119 95 217 95c145 0 241 -79 241 -187v-2c0 -88 -47 -136 -104 -164c70 -27 123 -73 123 -158v-2c0 -119 -93 -211 -249 -211z" />
    <glyph glyph-name="registered.alt" horiz-adv-x="830" 
d="M414 -12c-203 0 -361 163 -361 360v2c0 197 160 362 363 362s361 -163 361 -360v-2c0 -197 -160 -362 -363 -362zM414 24c185 0 325 147 325 326v2c0 179 -139 324 -323 324c-185 0 -325 -147 -325 -326v-2c0 -179 139 -324 323 -324zM269 201v313c0 20 16 36 36 36h133
c50 0 90 -15 115 -40c20 -20 31 -47 31 -80v-2c0 -58 -33 -96 -84 -113l72 -90c7 -7 10 -14 10 -25c0 -19 -16 -35 -34 -35c-15 0 -22 5 -31 17l-95 120h-81v-101c0 -20 -17 -36 -36 -36c-20 0 -36 16 -36 36zM341 365h94c47 0 75 23 75 59v2c0 38 -28 59 -75 59h-94v-120z
" />
    <glyph glyph-name="NUL" horiz-adv-x="0" 
 />
    <glyph glyph-name="hfjslug" horiz-adv-x="694" 
d="M644 -200h-208l-8 14h-163l-8 -14h-207v303c18 0 32 14 32 32c0 17 -14 32 -32 32v554h100l30 79h334l29 -79h101v-921zM400 563v-172h15v78h38v14h-38v66h43v14h-58zM184 563v-172h15v79h47v-79h15v172h-15v-79h-47v79h-15zM460 394c5 -2 14 -4 21 -4c20 0 31 11 31 36
v137h-16v-137c0 -16 -5 -22 -16 -22c-6 0 -15 3 -20 5v-15zM371 465l-13 3c-2 -9 -5 -21 -8 -30h-1l-16 31c13 12 23 26 23 42c0 17 -9 31 -27 31c-17 0 -28 -14 -28 -31c0 -15 6 -24 14 -39c-15 -12 -23 -28 -23 -47c0 -22 12 -37 29 -37c13 0 23 9 29 24h1l12 -24l12 6
l-17 32c5 12 9 25 13 39zM523 323v-46h8v12l8 8l15 -20h10l-20 26l18 20h-10l-20 -24h-1v24h-8zM488 292l10 -15h9l-12 17c5 2 10 6 10 14c0 9 -7 15 -17 15h-20v-46h8v15h12zM426 276c14 0 24 11 24 24c0 12 -10 24 -24 24s-24 -12 -24 -24c0 -13 10 -24 24 -24zM370 301
l-13 22h-9l18 -29v-17h8v17l18 29h-9zM193 323v-46h34v7h-26v13h23v7h-23v12h26v7h-34zM132 323v-46h8v32l25 -32h7v46h-8v-32l-25 32h-7zM241 323l14 -47h8l11 34h1l11 -34h8l14 47h-8l-10 -35h-1l-11 35h-7l-11 -35h-1l-10 35h-8zM327 479c-7 13 -12 22 -12 32
c0 11 6 19 14 19s13 -8 13 -19c0 -12 -5 -21 -15 -32zM342 423c-5 -13 -12 -21 -20 -21c-9 0 -16 10 -16 25c0 13 7 26 16 35zM487 299h-11v17h11c6 0 10 -3 10 -8s-4 -9 -10 -9zM426 283c-10 0 -16 8 -16 17c0 8 6 17 16 17s16 -9 16 -17c0 -9 -6 -17 -16 -17z" />
    <glyph glyph-name="i.dot" horiz-adv-x="286" 
d="M74 664v6c0 36 30 59 69 59s69 -23 69 -59v-6c0 -36 -30 -60 -69 -60s-69 24 -69 60zM83 55v418c0 34 26 61 60 61s61 -27 61 -61v-418c0 -34 -27 -60 -61 -60c-33 0 -60 26 -60 60z" />
    <glyph glyph-name="caron.alt" horiz-adv-x="500" 
d="M205 564l3 124c1 25 18 44 44 44h18c18 0 31 -10 31 -29c0 -6 -1 -14 -4 -23l-37 -121c-5 -16 -13 -25 -29 -25s-27 11 -26 30z" />
    </font>
</defs>
</svg>
